<?xml version="1.0" standalone="no"?>
<!DOCTYPE svg PUBLIC "-//W3C//DTD SVG 1.1//EN" "http://www.w3.org/Graphics/SVG/1.1/DTD/svg11.dtd" >
<svg xmlns="http://www.w3.org/2000/svg" xmlns:xlink="http://www.w3.org/1999/xlink" version="1.1">
<metadata>
Created by FontForge 20170731 at Mon Sep 25 11:25:17 2023
 By Aleksey,,,
Copyright (c) 2023 by Baianat. All rights reserved.
</metadata>
<defs>
<font id="GrueneType-BlackCondensedItalic" horiz-adv-x="0" >
  <font-face 
    font-family="GrueneType Black Cond Italic"
    font-weight="900"
    font-style="italic"
    font-stretch="normal"
    units-per-em="2048"
    panose-1="0 0 2 0 0 0 0 0 0 0"
    ascent="1638"
    descent="-410"
    x-height="1195"
    cap-height="1536"
    bbox="-630 -464 2463 2133"
    underline-thickness="102"
    underline-position="-400"
    unicode-range="U+000D-FB02"
  />
<missing-glyph horiz-adv-x="1546" 
 />
    <glyph glyph-name="fi" unicode="fi" horiz-adv-x="1249" 
d="M952 0h-286l201 945h-377l-203 -945h-301l203 945h-116l53 250h116l24 121q19 97 103 165.5t182 68.5h289l-50 -234h-174q-23 0 -39.5 -13.5t-20.5 -34.5l-13 -73h664zM1092 1329q-58 0 -93.5 35.5t-35.5 89.5q0 74 60 132.5t138 58.5q58 0 92 -38t34 -93q0 -71 -61 -128
t-134 -57z" />
    <glyph glyph-name="fl" unicode="fl" horiz-adv-x="1172" 
d="M717 949h-227l-203 -949h-301l203 949h-116l53 249h116l24 104q22 98 105 166t180 68h700l-328 -1536h-286l278 1302h-299q-23 0 -39 -13.5t-21 -34.5l-13 -56h227z" />
    <glyph glyph-name="f_f" unicode="ff" horiz-adv-x="1433" 
d="M1439 949h-227l-203 -949h-301l203 949h-421l-203 -949h-301l203 949h-116l53 249h116l24 118q19 97 103 165.5t182 68.5h289l-50 -234h-174q-23 0 -39.5 -13.5t-20.5 -34.5l-13 -70h421l24 118q19 97 103 165.5t182 68.5h289l-50 -234h-174q-23 0 -39.5 -13.5
t-20.5 -34.5l-13 -70h227z" />
    <glyph glyph-name="f_f_i" unicode="ffi" horiz-adv-x="1971" 
d="M1674 3h-286l201 946h-377l-203 -949h-301l203 949h-421l-203 -949h-301l203 949h-116l53 249h116l24 118q19 97 103 165.5t182 68.5h289l-50 -234h-174q-23 0 -39.5 -13.5t-20.5 -34.5l-13 -70h421l24 118q19 97 103 165.5t182 68.5h289l-50 -234h-174
q-23 0 -39.5 -13.5t-20.5 -34.5l-13 -70h664zM1814 1329q-58 0 -94 35.5t-36 89.5q0 74 60 132.5t138 58.5q58 0 92.5 -38t34.5 -93q0 -71 -61 -128t-134 -57z" />
    <glyph glyph-name=".notdef" horiz-adv-x="1546" 
 />
    <glyph glyph-name=".null" horiz-adv-x="1024" 
 />
    <glyph glyph-name="nonmarkingreturn" horiz-adv-x="682" 
 />
    <glyph glyph-name="CR" unicode="&#xd;" horiz-adv-x="375" 
 />
    <glyph glyph-name="space" unicode=" " horiz-adv-x="375" 
 />
    <glyph glyph-name="exclam" unicode="!" horiz-adv-x="610" 
d="M674 1536l-283 -1109h-260l236 1109h307zM244 341q72 0 110.5 -35t38.5 -101q0 -90 -61.5 -159.5t-165.5 -69.5q-69 0 -109 35.5t-40 96.5q0 96 63.5 164.5t163.5 68.5z" />
    <glyph glyph-name="quotedbl" unicode="&#x22;" horiz-adv-x="798" 
d="M461 1536l-145 -497h-219l67 497h297zM529 1536h297l-145 -497h-218z" />
    <glyph glyph-name="numbersign" unicode="#" horiz-adv-x="1256" 
d="M128 416h-162l44 202h203l115 283h-164l44 202h198l176 433h232l-177 -433h201l176 433h230l-176 -433h151l-45 -202h-188l-114 -283h149l-45 -202h-186l-162 -407h-229l161 407h-198l-164 -407h-230zM640 618l118 283h-202l-116 -283h200z" />
    <glyph glyph-name="dollar" unicode="$" horiz-adv-x="882" 
d="M210 -148l26 124q-132 11 -210.5 100t-78.5 226q0 51 10 102l11 50h264l-10 -50q-4 -24 -4 -40q0 -98 76 -118l83 392q-276 158 -276 408q0 78 20.5 152t60.5 137.5t96 112t132 78.5t162 34l22 102h66l-22 -102q137 -9 211 -97t74 -239q0 -74 -17 -152h-266q14 64 14 106
q0 99 -72 114l-82 -384q7 -5 17.5 -11.5t14.5 -9.5q127 -76 191.5 -161t64.5 -209q0 -218 -138 -374t-348 -169l-26 -122h-66zM360 244q79 12 119 78.5t40 145.5q0 75 -84 133zM370 1101q0 -79 74 -149l71 340q-38 -7 -67.5 -29t-45.5 -51t-24 -57.5t-8 -53.5z" />
    <glyph glyph-name="percent" unicode="%" horiz-adv-x="1732" 
d="M1399 1536h248l-1312 -1536h-250zM703 1562q127 0 179.5 -46.5t52.5 -139.5q0 -32 -3 -66.5t-13 -80.5t-26 -87t-44.5 -82t-65.5 -71t-92.5 -48.5t-122.5 -18.5t-114 15.5t-71.5 44.5t-34.5 62.5t-10 76.5q0 31 3 63.5t13 77.5t26 84.5t44 80t65 69.5t92 47.5t122 18.5z
M555 1179q0 -58 56 -58q28 0 49 22t31 55t14.5 62t4.5 54q0 53 -50 53q-28 0 -50 -21t-33 -52.5t-16.5 -61t-5.5 -53.5zM1145 614q127 0 179.5 -46.5t52.5 -139.5q0 -32 -3 -66.5t-13 -80.5t-26 -87t-44.5 -82t-65.5 -71t-92.5 -48.5t-122.5 -18.5t-114 16t-71.5 45
t-34.5 62.5t-10 76.5q0 45 6.5 93.5t29.5 113.5t60.5 114t107 84t161.5 35zM997 232q0 -58 56 -58q28 0 49 22t31 55t14.5 62t4.5 54q0 53 -49 53q-37 0 -62.5 -37t-34.5 -77t-9 -74z" />
    <glyph glyph-name="ampersand" unicode="&#x26;" horiz-adv-x="1384" 
d="M729 131q-86 -80 -178.5 -118.5t-221.5 -38.5q-173 0 -264 79.5t-91 222.5q0 155 80 292.5t262 264.5q-82 143 -82 276q0 195 138 324t343 129q158 0 241 -72.5t83 -192.5q0 -152 -92.5 -285t-248.5 -215l121 -218l236 322h304l-408 -520l252 -384h-387zM294 355
q0 -131 124 -131q50 0 91.5 22.5t94.5 76.5l-184 285q-126 -106 -126 -253zM536 1166q0 -67 60 -159q157 103 157 254q0 80 -82 80q-63 0 -99 -56t-36 -119z" />
    <glyph glyph-name="quotesingle" unicode="'" horiz-adv-x="433" 
d="M461 1536l-145 -497h-219l67 497h297z" />
    <glyph glyph-name="parenleft" unicode="(" horiz-adv-x="617" 
d="M217 -133q-86 131 -136 319.5t-50 380.5q0 166 46.5 335.5t123 309t164.5 252.5t181 190l215 -118q-432 -429 -432 -915q0 -168 29.5 -304t109.5 -291z" />
    <glyph glyph-name="parenright" unicode=")" horiz-adv-x="624" 
d="M440 1654q86 -131 136 -319.5t50 -380.5q0 -166 -46.5 -335.5t-123 -309t-164.5 -252.5t-181 -190l-215 118q432 429 432 914q0 168 -29.5 304.5t-109.5 291.5z" />
    <glyph glyph-name="asterisk" unicode="*" horiz-adv-x="735" 
d="M683 862l-191 -120l-88 202l-174 -200l-140 120l193 186l-218 61l104 195l205 -86l39 239h205l-65 -240l242 85l22 -195l-245 -61z" />
    <glyph glyph-name="plus" unicode="+" horiz-adv-x="1211" 
d="M666 456l-60 -289h-270l60 289h-258l55 239h258l59 288h270l-60 -288h258l-55 -239h-257z" />
    <glyph glyph-name="comma" unicode="," horiz-adv-x="474" 
d="M-60 -70q61 0 99 14.5t51 53.5q-44 14 -68 51.5t-24 81.5q0 77 56 133.5t141 56.5q84 0 123 -51t39 -130q0 -46 -13 -92.5t-45.5 -95.5t-81.5 -86.5t-128.5 -61.5t-178.5 -24z" />
    <glyph glyph-name="hyphen" unicode="-" horiz-adv-x="614" 
d="M531 698l-53 -246h-512l53 246h512z" />
    <glyph glyph-name="period" unicode="." horiz-adv-x="501" 
d="M160 341q72 0 110.5 -34t38.5 -97q0 -94 -62 -164t-165 -70q-69 0 -109 37.5t-40 95.5q0 97 64 164.5t163 67.5z" />
    <glyph glyph-name="slash" unicode="/" horiz-adv-x="1071" 
d="M1178 1536l-1011 -1536h-273l1011 1536h273z" />
    <glyph glyph-name="zero" unicode="0" horiz-adv-x="979" 
d="M643 1562q157 0 241.5 -90t84.5 -245q0 -24 -7 -68t-41 -215t-105 -505q-48 -226 -180 -342t-329 -116q-157 0 -242 89.5t-85 246.5q0 22 7 64.5t40.5 209t105.5 506.5q21 96 67.5 180.5t112.5 148t151.5 100t178.5 36.5zM282 321q3 -80 82 -80q62 0 95.5 42.5
t49.5 117.5q165 773 165 806q0 90 -85 90q-61 0 -92 -43t-48 -119q-167 -777 -167 -814z" />
    <glyph glyph-name="one" unicode="1" horiz-adv-x="622" 
d="M329 0h-290l263 1149l-268 -69l65 302l558 154z" />
    <glyph glyph-name="two" unicode="2" horiz-adv-x="979" 
d="M67 1022q32 151 69.5 247t100 165t153 98.5t223.5 29.5q154 0 246.5 -84.5t92.5 -236.5q0 -189 -75 -345q-131 -272 -566 -631h455l-56 -265h-814l56 265q102 90 338 329.5t287 310.5q54 74 78 142.5t24 150.5q0 63 -31 91.5t-93 28.5q-54 0 -90.5 -23t-68.5 -89
t-56 -184h-273z" />
    <glyph glyph-name="three" unicode="3" horiz-adv-x="947" 
d="M137 1123q14 65 37.5 124t64.5 118t94 101.5t130.5 69t169.5 26.5q159 0 237.5 -70t78.5 -203q0 -60 -15.5 -128.5t-45 -136t-80 -122t-112.5 -76.5v-5q66 -24 107.5 -82t41.5 -154q0 -51 -7.5 -105.5t-26 -115t-47 -115.5t-73 -106t-100 -88t-133 -59t-168.5 -22
q-329 0 -329 301q0 62 13 131h282q-7 -36 -7 -70q0 -61 24 -89.5t79 -28.5t96 41t60 101.5t27.5 110.5t8.5 87q0 65 -38 95t-127 30h-67l55 251h61q57 0 100.5 24.5t65.5 58t35.5 78t17 74.5t3.5 58q0 91 -89 91q-61 0 -96 -52.5t-59 -142.5h-269z" />
    <glyph glyph-name="four" unicode="4" horiz-adv-x="996" 
d="M300 561h234l106 470h266l-102 -470h116l-55 -259h-116l-65 -307h-269l65 307h-557l57 259l597 999h299z" />
    <glyph glyph-name="five" unicode="5" horiz-adv-x="926" 
d="M394 971q85 68 214 68q133 0 197 -80t64 -223q0 -55 -7.5 -117t-26 -137t-47.5 -145t-76 -137t-106 -116.5t-143 -79.5t-183 -30q-166 0 -246 81t-80 225q0 66 14 135h286q-7 -38 -7 -77q0 -114 94 -114q50 0 90 36.5t63.5 89.5t39 117.5t21 115t5.5 88.5
q0 60 -23.5 88.5t-77.5 28.5q-56 0 -94.5 -38.5t-69.5 -107.5l-261 32l265 862h710l-91 -271h-433z" />
    <glyph glyph-name="six" unicode="6" horiz-adv-x="965" 
d="M686 1179q0 31 -3 55t-12.5 50.5t-30.5 41t-53 14.5q-55 0 -102.5 -54t-62.5 -132l-43 -212q82 92 232 92q52 0 89 -6t71.5 -23.5t55 -48.5t33 -82t12.5 -123q0 -66 -6.5 -132.5t-23.5 -145t-43.5 -147.5t-70.5 -135t-101 -113t-138 -75.5t-178 -28.5q-82 0 -137.5 13
t-102 48.5t-69 105t-22.5 176.5q0 114 32 265l119 567q85 413 519 413q157 0 241.5 -66.5t84.5 -218.5q0 -50 -7 -98h-283zM261 319q0 -121 91 -121q50 0 90 39.5t63 96.5t38.5 126.5t21 123.5t5.5 94q0 76 -21 105t-73 29q-46 0 -84.5 -39t-61.5 -97t-39.5 -128t-23 -128
t-6.5 -101z" />
    <glyph glyph-name="seven" unicode="7" horiz-adv-x="848" 
d="M916 1292l-646 -1297h-313l666 1270h-483l58 271h771z" />
    <glyph glyph-name="eight" unicode="8" horiz-adv-x="976" 
d="M307 -26q-157 0 -245 85t-88 243q0 95 26.5 188t87.5 179.5t149 132.5q-78 63 -78 213q0 79 20 157t61.5 148.5t100 124t140 85.5t176.5 32q150 0 234 -78t84 -226q0 -88 -21 -173t-73.5 -163.5t-129.5 -114.5q109 -69 109 -244q0 -115 -37.5 -220.5t-106 -188
t-175 -131.5t-234.5 -49zM276 353q0 -66 25 -102t73 -36t86.5 36t60 89.5t33 106t11.5 94.5q0 63 -24.5 98t-72.5 35t-87 -34.5t-61 -86t-33 -104t-11 -96.5zM439 1039q0 -66 20 -93.5t65 -27.5q44 0 78 30t52 76t26.5 91t8.5 86q0 123 -85 123q-47 0 -81.5 -32.5t-51.5 -81
t-24.5 -92t-7.5 -79.5z" />
    <glyph glyph-name="nine" unicode="9" horiz-adv-x="967" 
d="M271 355q-5 -25 -5 -44q0 -57 30 -87.5t73 -30.5q58 0 100 37.5t57 107.5l58 270q-42 -45 -95.5 -68t-136.5 -23q-129 0 -197 63t-68 219q0 83 31 240q20 100 47.5 177t70 144t99 110t135.5 67.5t179 24.5q78 0 136 -16t103.5 -53t69 -104.5t23.5 -164.5q0 -113 -32 -261
l-132 -620q-35 -165 -175.5 -267t-334.5 -102q-152 0 -238 79.5t-86 226.5q0 32 5 75h283zM391 872q0 -136 95 -136q44 0 82 40t61 98t39.5 126.5t23 122t6.5 87.5q0 72 -20.5 101.5t-69.5 29.5q-60 0 -105.5 -54.5t-68 -136t-33 -153t-10.5 -125.5z" />
    <glyph glyph-name="colon" unicode=":" horiz-adv-x="510" 
d="M169 341q72 0 110 -34t38 -97q0 -96 -62 -165t-165 -69q-70 0 -109 36t-39 99q0 94 64.5 162t162.5 68zM283 884q72 0 111 -34t39 -97q0 -96 -62.5 -165t-163.5 -69q-70 0 -109.5 35.5t-39.5 97.5q0 97 62.5 164.5t162.5 67.5z" />
    <glyph glyph-name="semicolon" unicode=";" horiz-adv-x="505" 
d="M287 884q72 0 111 -34t39 -96q0 -93 -61 -164t-166 -71q-71 0 -110 34t-39 99q0 97 63 164.5t163 67.5zM-94 -70q61 0 99 14.5t51 53.5q-44 14 -68 51.5t-24 81.5q0 77 55.5 133.5t140.5 56.5q84 0 123.5 -51t39.5 -130q0 -46 -13 -92.5t-46 -95.5t-82 -86.5
t-128.5 -61.5t-178.5 -24z" />
    <glyph glyph-name="less" unicode="&#x3c;" horiz-adv-x="1211" 
d="M550 541l370 -142l-56 -269l-726 288l53 246l847 288l-58 -269z" />
    <glyph glyph-name="equal" unicode="=" horiz-adv-x="1211" 
d="M1017 840l-54 -239h-786l55 239h785zM152 481h785l-55 -239h-785z" />
    <glyph glyph-name="greater" unicode="&#x3e;" horiz-adv-x="1211" 
d="M923 418l-844 -288l56 269l432 142l-372 142l58 269l723 -288z" />
    <glyph glyph-name="question" unicode="?" horiz-adv-x="913" 
d="M213 444q24 150 48.5 250.5t51.5 157.5t46 82t51 54q3 3 76.5 54t121 101t47.5 94q0 30 -20 49.5t-60 19.5q-113 0 -227 -137l-174 137q77 109 196.5 178t260.5 69q47 0 89 -8.5t81 -28.5t67 -50t45 -75t17 -101q0 -55 -18 -107t-44.5 -90t-65 -77t-71 -64.5t-71.5 -56.5
t-59 -50q-39 -36 -64.5 -118t-53.5 -283h-270zM345 338q148 0 148 -130q0 -91 -59 -161.5t-166 -70.5q-72 0 -110.5 35t-38.5 98q0 94 61.5 161.5t164.5 67.5z" />
    <glyph glyph-name="at" unicode="@" horiz-adv-x="1629" 
d="M1004 -302q-177 -102 -460 -102q-281 0 -432 136.5t-151 405.5q0 112 21 228.5t64 231t104.5 219t146.5 194t185 155t226 103t263 37.5q279 0 435.5 -132t156.5 -375q0 -79 -15.5 -167.5t-45 -182t-78 -177.5t-110 -150.5t-146.5 -106t-182 -39.5q-170 0 -191 121
q-100 -121 -263 -121q-182 0 -182 195q0 72 20.5 168t62.5 198t96.5 188.5t130 142t156.5 55.5q74 0 112 -27t40 -68l27 77h247l-211 -605q-17 -53 -17 -76q0 -50 56 -50q52 0 99.5 43.5t80.5 111t57.5 148.5t36 156t11.5 133q0 357 -427 357q-147 0 -272.5 -61.5
t-209.5 -159.5t-143.5 -222.5t-86.5 -249t-27 -241.5q0 -196 99 -299t318 -103q190 0 380 80zM616 256q0 -58 51 -58q46 0 82 54.5t98 223.5q46 130 46 176q0 28 -13 40.5t-40 12.5q-42 0 -85.5 -56.5t-72.5 -133t-47.5 -149.5t-18.5 -110z" />
    <glyph glyph-name="A" unicode="A" horiz-adv-x="1145" 
d="M676 447h-318l-174 -447h-293l653 1536h417v-1536h-299zM684 703l14 584l-237 -584h223z" />
    <glyph glyph-name="B" unicode="B" horiz-adv-x="1003" 
d="M732 826q162 -46 162 -232q0 -66 -15 -135q-45 -208 -179 -333.5t-319 -125.5h-460l328 1536h454q132 0 218 -83.5t86 -208.5q0 -26 -9 -73l-15 -74q-45 -212 -251 -271zM360 259q86 0 142 57.5t78 161.5q9 37 9 78q0 137 -137 137h-83l-93 -434h84zM500 918
q60 0 112.5 40t68.5 100q19 65 19 97q0 51 -35.5 86.5t-89.5 35.5h-83l-76 -359h84z" />
    <glyph glyph-name="C" unicode="C" horiz-adv-x="1027" 
d="M355 -26q-164 0 -269.5 101.5t-105.5 257.5q0 50 10 99l140 665q27 126 112 233t204.5 169.5t244.5 62.5q167 0 270.5 -104.5t103.5 -264.5q0 -50 -10 -96l-29 -136h-299l38 174q3 15 3 31q0 56 -36.5 93.5t-94.5 37.5q-66 0 -122 -48t-70 -114l-157 -741q-3 -12 -3 -37
q0 -53 34.5 -88t91.5 -35q67 0 125 47t72 113l37 179h299l-29 -141q-40 -191 -203 -324.5t-357 -133.5z" />
    <glyph glyph-name="D" unicode="D" horiz-adv-x="1018" 
d="M-79 0l328 1536h435q164 0 256.5 -100.5t92.5 -261.5q0 -57 -14 -124l-120 -564q-28 -134 -104.5 -244.5t-191.5 -176t-246 -65.5h-436zM365 261q76 0 141.5 54.5t82.5 131.5l136 642q5 23 5 37q0 63 -42.5 106t-107.5 43h-90l-215 -1014h90z" />
    <glyph glyph-name="E" unicode="E" horiz-adv-x="855" 
d="M696 259l-56 -259h-719l328 1536h719l-57 -261h-421l-72 -335h357l-53 -256h-357l-90 -425h421z" />
    <glyph glyph-name="F" unicode="F" horiz-adv-x="861" 
d="M490 1275l-75 -353h368l-54 -258h-369l-142 -664h-297l328 1536h726l-57 -261h-428z" />
    <glyph glyph-name="G" unicode="G" horiz-adv-x="1054" 
d="M358 -26q-178 0 -278 100t-100 257q0 62 11 108l137 655q41 195 206 331.5t359 136.5q164 0 268 -105.5t104 -268.5q0 -48 -10 -94l-24 -121h-299l33 159q3 14 3 34q0 56 -35.5 91t-95.5 35q-70 0 -126.5 -50.5t-71.5 -118.5l-152 -725q-4 -20 -4 -36q0 -52 37 -88.5
t95 -36.5q90 0 172 55l56 271h-191l57 265h489l-128 -611q-2 -10 -22.5 -35.5t-64.5 -61.5t-101 -68t-143.5 -55t-180.5 -23z" />
    <glyph glyph-name="H" unicode="H" horiz-adv-x="1027" 
d="M1106 1536l-328 -1536h-297l135 628h-258l-134 -628h-303l328 1536h302l-136 -643h257l137 643h297z" />
    <glyph glyph-name="I" unicode="I" horiz-adv-x="467" 
d="M546 1536l-328 -1536h-297l328 1536h297z" />
    <glyph glyph-name="J" unicode="J" horiz-adv-x="704" 
d="M79 -26q-132 0 -233 52l98 278q95 -62 160 -62q109 0 143 157l238 1137h298l-242 -1161q-37 -180 -164 -290.5t-298 -110.5z" />
    <glyph glyph-name="K" unicode="K" horiz-adv-x="996" 
d="M447 567l-188 -296l-44 -271h-294l328 1536h294l-161 -739l441 739h332l-466 -708l130 -828h-322z" />
    <glyph glyph-name="L" unicode="L" horiz-adv-x="863" 
d="M-79 0l328 1536h301l-272 -1275h444l-56 -261h-745z" />
    <glyph glyph-name="M" unicode="M" horiz-adv-x="1360" 
d="M1111 0h-276l266 1251l-437 -1251h-289l98 1263l-270 -1263h-282l328 1536h454l-107 -1179l396 1179h447z" />
    <glyph glyph-name="N" unicode="N" horiz-adv-x="1087" 
d="M-79 0l328 1536h393l-17 -1137l242 1137h299l-328 -1536h-387l8 1152l-246 -1152h-292z" />
    <glyph glyph-name="O" unicode="O" horiz-adv-x="1044" 
d="M691 1562q167 0 271.5 -104t104.5 -262q0 -98 -152 -764q-54 -236 -191.5 -347t-368.5 -111q-165 0 -270 103.5t-105 260.5q0 22 52.5 287.5t97.5 471.5q32 146 117.5 253.5t200 159.5t243.5 52zM285 358q0 -55 34.5 -89.5t91.5 -34.5q67 0 124 45.5t73 114.5
q29 122 94.5 439.5t65.5 332.5q0 56 -36.5 93.5t-94.5 37.5q-66 0 -122 -48t-70 -114q-20 -88 -59.5 -277t-70 -341.5t-30.5 -158.5z" />
    <glyph glyph-name="P" unicode="P" horiz-adv-x="1005" 
d="M-79 0l328 1536h411q159 0 256.5 -106.5t97.5 -296.5q0 -129 -32 -234t-85.5 -174t-126.5 -115.5t-152 -67t-164 -20.5h-116l-121 -522h-296zM474 778q92 0 163 92t71 229q0 89 -38.5 135t-102.5 46h-77l-92 -502h76z" />
    <glyph glyph-name="Q" unicode="Q" horiz-adv-x="1018" 
d="M915 437q-21 -102 -84 -192t-155 -156l90 -219l-196 -102l-90 225q-82 -19 -127 -19q-166 0 -269.5 102.5t-103.5 259.5q0 52 10 101l138 659q46 222 189.5 344t371.5 122q165 0 269.5 -104.5t104.5 -264.5q0 -48 -10 -97zM285 401q-3 -15 -3 -39q0 -51 26 -86t71 -35h7
l-38 100l195 103l39 -103q18 26 26 60l153 734q4 18 4 32q0 56 -35.5 94t-92.5 38q-68 0 -126 -48.5t-72 -115.5z" />
    <glyph glyph-name="R" unicode="R" horiz-adv-x="1024" 
d="M-79 0l328 1536h411q155 0 254.5 -96.5t99.5 -243.5q0 -149 -80 -272t-209 -192l169 -732h-315l-149 669h-70l-143 -669h-296zM492 925q89 0 152.5 64t63.5 153q0 60 -40 99t-101 39h-77l-75 -355h77z" />
    <glyph glyph-name="S" unicode="S" horiz-adv-x="882" 
d="M273 -26q-148 0 -237 90.5t-89 237.5q0 51 10 102l11 50h264l-10 -50q-4 -24 -4 -40q0 -122 113 -122q49 0 87 21t59 55t31.5 72.5t10.5 77.5q0 53 -34 90t-98 73q-37 21 -66 40.5t-73 59t-73.5 81.5t-51.5 104t-22 130q0 102 35 195t98.5 164.5t160 114t211.5 42.5
q153 0 235 -88.5t82 -249.5q0 -74 -17 -152h-266q14 64 14 106q0 62 -24.5 89.5t-79.5 27.5q-47 0 -84 -20.5t-56.5 -51.5t-29.5 -62.5t-10 -59.5q0 -119 162 -214q127 -76 191.5 -161t64.5 -209q0 -148 -66 -272.5t-185 -197.5t-264 -73z" />
    <glyph glyph-name="T" unicode="T" horiz-adv-x="887" 
d="M927 1273h-249l-272 -1273h-298l271 1273h-254l56 263h802z" />
    <glyph glyph-name="U" unicode="U" horiz-adv-x="1022" 
d="M860 404q-37 -176 -189 -303t-328 -127q-151 0 -248 96.5t-97 243.5q0 41 11 90l240 1132h299l-248 -1167q-3 -13 -3 -29q0 -46 28 -73.5t74 -27.5q53 0 99.5 38t57.5 92l248 1167h297z" />
    <glyph glyph-name="V" unicode="V" horiz-adv-x="983" 
d="M102 0l82 1536h313l-128 -1343l445 1343h312l-576 -1536h-448z" />
    <glyph glyph-name="W" unicode="W" horiz-adv-x="1409" 
d="M655 0l164 1294l-386 -1294h-407l174 1536h297l-176 -1289l384 1289h336l-162 -1268l365 1268h301l-483 -1536h-407z" />
    <glyph glyph-name="X" unicode="X" horiz-adv-x="996" 
d="M471 0l-15 594l-279 -594h-327l433 739l-83 797h319l10 -621l278 621h319l-428 -792l108 -744h-335z" />
    <glyph glyph-name="Y" unicode="Y" horiz-adv-x="1020" 
d="M626 616l-131 -616h-300l131 616l-142 920h308l44 -650l317 650h311z" />
    <glyph glyph-name="Z" unicode="Z" horiz-adv-x="897" 
d="M-113 0l55 251l684 1024h-467l56 261h795l-53 -246l-686 -1027h468l-56 -263h-796z" />
    <glyph glyph-name="bracketleft" unicode="[" horiz-adv-x="665" 
d="M227 150h253l-53 -252h-533l382 1775h448l-55 -253h-167z" />
    <glyph glyph-name="backslash" unicode="\" horiz-adv-x="896" 
d="M102 1536h273l354 -1536h-273z" />
    <glyph glyph-name="bracketright" unicode="]" horiz-adv-x="699" 
d="M362 -102h-481l52 252h202l273 1270h-219l55 253h498z" />
    <glyph glyph-name="asciicircum" unicode="^" horiz-adv-x="1042" 
d="M550 1282l-246 -306h-307l477 560h258l239 -560h-307z" />
    <glyph glyph-name="underscore" unicode="_" horiz-adv-x="750" 
d="M573 -68l-44 -205h-751l45 205h750z" />
    <glyph glyph-name="grave" unicode="`" horiz-adv-x="1058" 
d="M237 1282h333l131 -292h-274z" />
    <glyph glyph-name="a" unicode="a" horiz-adv-x="884" 
d="M372 75q-71 -95 -206 -95q-105 0 -169.5 69t-64.5 190q0 98 35.5 191t102.5 169t176 122.5t242 46.5h17l26 123q7 35 7 44q0 53 -52 53q-74 0 -92 -94l-10 -51h-290l20 91q30 134 149.5 209.5t282.5 75.5q156 0 233.5 -55t77.5 -154q0 -32 -7 -66l-200 -944h-295z
M239 287q0 -91 60 -91q48 0 74.5 31.5t42.5 108.5l55 255h-26q-50 0 -88.5 -23t-60 -56.5t-35.5 -77.5t-18 -79t-4 -68z" />
    <glyph glyph-name="b" unicode="b" horiz-adv-x="962" 
d="M451 1077q35 60 99.5 99t142.5 39q123 0 176.5 -61t53.5 -173q0 -82 -20 -169l-109 -507q-29 -134 -145 -229.5t-248 -95.5q-79 0 -135 39.5t-75 115.5l-29 -135h-241l328 1536h301zM294 333q-4 -14 -4 -22q0 -33 24 -56t60 -23q43 0 79 29.5t45 71.5l111 525q4 14 4 29
q0 37 -22 59.5t-60 22.5q-44 0 -79.5 -29t-45.5 -75z" />
    <glyph glyph-name="c" unicode="c" horiz-adv-x="887" 
d="M292 -24q-155 0 -243 77.5t-88 204.5q0 49 8 82l103 481q42 198 163.5 298t315.5 100q162 0 240.5 -67.5t78.5 -204.5q0 -61 -15 -135l-14 -63h-278l21 103q8 35 8 59q0 77 -82 77q-60 0 -88.5 -35.5t-42.5 -105.5l-111 -521q-2 -9 -2 -26q0 -34 23.5 -56t62.5 -22
q41 0 76.5 30.5t44.5 73.5l19 90h278l-21 -100q-31 -153 -156 -246.5t-301 -93.5z" />
    <glyph glyph-name="d" unicode="d" horiz-adv-x="952" 
d="M1029 1536l-326 -1536h-240l29 135q-102 -152 -275 -152q-116 0 -190.5 71.5t-74.5 181.5q0 26 9 69l109 507q19 91 47 159.5t72 126.5t110 88.5t152 30.5q78 0 125 -40t55 -100l98 459h300zM270 333q-4 -14 -4 -22q0 -35 23.5 -57t60.5 -22q43 0 79 29.5t45 71.5
l113 532q4 14 4 22q0 36 -23 59t-61 23q-44 0 -79.5 -28.5t-45.5 -75.5z" />
    <glyph glyph-name="e" unicode="e" horiz-adv-x="911" 
d="M297 -20q-147 0 -239 82t-92 208q0 34 8 76l101 468q42 194 163.5 297.5t321.5 103.5q316 0 316 -275q0 -48 -18 -136l-61 -290h-486l-38 -183q-3 -14 -3 -26q0 -34 24 -56t64 -22q42 0 78 30.5t45 73.5l12 60h278l-10 -45q-38 -163 -162 -264.5t-302 -101.5zM594 862
q7 35 7 54q0 79 -82 79q-61 0 -91 -36t-44 -104l-36 -166h208z" />
    <glyph glyph-name="f" unicode="f" horiz-adv-x="711" 
d="M717 949h-227l-203 -949h-301l203 949h-116l53 249h116l21 104q20 95 104 164.5t181 69.5h288l-49 -234h-174q-22 0 -40 -16t-20 -32l-10 -56h227z" />
    <glyph glyph-name="g" unicode="g" horiz-adv-x="923" 
d="M671 -102q-33 -158 -163 -260t-303 -102q-148 0 -231 78t-83 205q0 36 8 79l9 42h271l-12 -58q-3 -10 -3 -24q0 -33 23 -54.5t59 -21.5q44 0 80.5 28.5t45.5 71.5l53 253q-34 -62 -98.5 -103.5t-140.5 -41.5q-229 0 -229 234q0 52 23 167l107 502q19 86 77.5 159.5
t141 115.5t168.5 42q77 0 132.5 -38t72.5 -112l29 135h237zM266 338q-3 -11 -3 -26q0 -31 23.5 -53.5t58.5 -22.5q41 0 77.5 31t45.5 71l112 527q4 14 4 24q0 34 -23.5 55.5t-60.5 21.5q-41 0 -76.5 -30t-44.5 -71z" />
    <glyph glyph-name="h" unicode="h" horiz-adv-x="945" 
d="M732 1225q198 0 198 -206q0 -51 -17 -126l-191 -893h-300l184 865q3 11 3 24q0 36 -23 58t-60 22q-42 0 -78 -30.5t-45 -73.5l-185 -865h-297l328 1536h304l-101 -474q14 26 35 51t55 52t83.5 43.5t106.5 16.5z" />
    <glyph glyph-name="i" unicode="i" horiz-adv-x="455" 
d="M345 1329q-58 0 -94 35.5t-36 89.5q0 74 60 132.5t138 58.5q58 0 92 -38t34 -93q0 -71 -60.5 -128t-133.5 -57zM169 1195h287l-255 -1195h-286z" />
    <glyph glyph-name="j" unicode="j" horiz-adv-x="436" 
d="M-220 -126q41 0 77.5 31t45.5 73l257 1217h296l-256 -1202q-32 -151 -159.5 -257t-274.5 -106q-99 0 -126 8l51 236h89zM338 1329q-58 0 -94 35.5t-36 89.5q0 74 60 132.5t138 58.5q58 0 92 -38t34 -93q0 -71 -60.5 -128t-133.5 -57z" />
    <glyph glyph-name="k" unicode="k" horiz-adv-x="954" 
d="M642 635l87 -635h-318l-29 265l-148 -210l-12 -55h-301l328 1536h301l-205 -959l385 618h306z" />
    <glyph glyph-name="l" unicode="l" horiz-adv-x="457" 
d="M249 1536h287l-328 -1536h-287z" />
    <glyph glyph-name="m" unicode="m" horiz-adv-x="1373" 
d="M1043 896q3 10 3 29q0 72 -65 72q-44 0 -73.5 -26.5t-40.5 -74.5l-191 -896h-304l200 899q3 11 3 29q0 72 -65 72q-43 0 -74 -29t-40 -72l-191 -899h-294l255 1195h204l-20 -94q44 52 112.5 83t143.5 31q181 0 232 -104q45 52 108.5 78t125.5 26q276 0 276 -235
q0 -51 -13 -106l-186 -874h-296z" />
    <glyph glyph-name="n" unicode="n" horiz-adv-x="945" 
d="M722 1220q198 0 198 -215q0 -60 -15 -126l-188 -879h-304l183 853q1 3 1 19q0 35 -23 58.5t-60 23.5q-41 0 -76.5 -30t-44.5 -71l-183 -853h-302l254 1195h309l-31 -145q14 27 35 53t55 54t84 45.5t108 17.5z" />
    <glyph glyph-name="o" unicode="o" horiz-adv-x="904" 
d="M551 1220q319 0 319 -271q0 -63 -15 -137l-106 -496q-33 -155 -157 -248.5t-300 -93.5q-155 0 -243 77.5t-88 204.5q0 51 8 84l103 481q42 199 163 299t316 100zM268 326q-3 -14 -3 -27q0 -36 23.5 -57.5t63.5 -21.5q42 0 77 30.5t44 75.5l111 526q7 34 7 63
q0 37 -18.5 56t-62.5 19q-60 0 -88.5 -36t-42.5 -107z" />
    <glyph glyph-name="p" unicode="p" horiz-adv-x="952" 
d="M-150 -341l326 1536h240l-29 -135q51 76 124 115.5t153 39.5q115 0 189 -73.5t74 -185.5q0 -24 -9 -67l-107 -507q-19 -90 -47 -158.5t-72 -126t-110 -87.5t-152 -30q-78 0 -125.5 39t-57.5 99l-97 -459h-300zM292 329q-2 -9 -2 -25q0 -35 22.5 -57t59.5 -22
q44 0 80 29.5t45 74.5l114 533q3 10 3 24q0 33 -23.5 55t-61.5 22q-43 0 -78.5 -29.5t-44.5 -71.5z" />
    <glyph glyph-name="q" unicode="q" horiz-adv-x="952" 
d="M428 118q-34 -60 -98 -100t-142 -40q-231 0 -231 234q0 78 21 170l107 507q19 88 79 162.5t143.5 117.5t170.5 43q79 0 135 -38t75 -114l29 135h240l-326 -1536h-300zM268 329q-3 -13 -3 -24q0 -36 23 -58t60 -22q44 0 80 29.5t45 74.5l114 533q4 14 4 22q0 34 -24 56.5
t-62 22.5q-43 0 -78.5 -29.5t-44.5 -71.5z" />
    <glyph glyph-name="r" unicode="r" horiz-adv-x="660" 
d="M375 1072q50 71 156 107t203 36l-58 -268q-102 0 -186 -39.5t-99 -113.5l-169 -794h-301l255 1195h225z" />
    <glyph glyph-name="s" unicode="s" horiz-adv-x="762" 
d="M213 -24q-121 0 -194.5 73.5t-73.5 189.5q0 51 19 121h265q-11 -42 -11 -61q0 -57 53 -57q34 0 55.5 24t28.5 51.5t7 56.5q0 62 -75 92q-113 47 -167.5 121t-54.5 191q0 77 28.5 154t79 140.5t129.5 103t172 39.5q121 0 189.5 -69.5t68.5 -193.5q0 -64 -13 -126h-265
q10 41 10 73q0 52 -46 52q-83 0 -83 -118q0 -39 30.5 -68t98.5 -65q79 -41 124 -98.5t45 -154.5q0 -81 -26.5 -162t-76 -151t-132.5 -114t-185 -44z" />
    <glyph glyph-name="t" unicode="t" horiz-adv-x="727" 
d="M357 329q-4 -18 -4 -25q0 -20 16.5 -32.5t40.5 -12.5h167l-56 -259h-291q-87 0 -141.5 53t-54.5 135q0 18 7 53l150 708h-142l53 246h142l46 216h297l-46 -216h193l-53 -246h-193z" />
    <glyph glyph-name="u" unicode="u" horiz-adv-x="971" 
d="M164 -20q-103 0 -150.5 54.5t-47.5 149.5q0 63 15 132l186 879h304l-181 -854q-3 -11 -3 -24q0 -33 23.5 -54.5t59.5 -21.5q42 0 78 29.5t45 70.5l181 854h302l-254 -1195h-309l31 145q-18 -36 -48.5 -70t-93 -64.5t-138.5 -30.5z" />
    <glyph glyph-name="v" unicode="v" horiz-adv-x="1013" 
d="M102 0l7 1195h328l-58 -1033l382 1033h328l-504 -1195h-483z" />
    <glyph glyph-name="w" unicode="w" horiz-adv-x="1344" 
d="M611 0l104 976l-307 -976h-389l106 1195h310l-121 -924l282 924h332l-112 -932l271 932h314l-399 -1195h-391z" />
    <glyph glyph-name="x" unicode="x" horiz-adv-x="904" 
d="M394 0l-15 435l-203 -435h-323l319 568l-49 627h317l-5 -504l214 504h314l-320 -625l81 -570h-330z" />
    <glyph glyph-name="y" unicode="y" horiz-adv-x="1047" 
d="M579 -135q-52 -123 -148 -197t-216 -74h-235l51 242h169q39 0 73.5 24t47.5 60l29 80h-208l6 1195h326l-58 -1019l378 1019h329z" />
    <glyph glyph-name="z" unicode="z" horiz-adv-x="762" 
d="M427 942h-328l53 253h640l-51 -243l-502 -699h372l-55 -253h-686l53 242z" />
    <glyph glyph-name="braceleft" unicode="{" horiz-adv-x="663" 
d="M474 1065q-23 -101 -75.5 -156.5t-142.5 -75.5q128 -30 128 -155q0 -28 -9 -77l-75 -343q-3 -15 -3 -28q0 -39 84 -39h88l-53 -252h-187q-124 0 -180 38.5t-56 126.5q0 51 12 99l91 398q3 13 3 37q0 36 -21.5 52.5t-68.5 16.5h-11l53 252h10q57 0 90 25t47 81l68 283
q34 142 110 203.5t226 61.5h171l-54 -253h-72q-55 0 -86 -23t-42 -74z" />
    <glyph glyph-name="bar" unicode="|" horiz-adv-x="453" 
d="M534 1743l-396 -1871h-205l396 1871h205z" />
    <glyph glyph-name="braceright" unicode="}" horiz-adv-x="699" 
d="M179 471q23 101 76 156.5t143 75.5q-128 30 -128 155q0 34 8 77l75 343q4 20 4 28q0 39 -84 39h-106l53 252h205q124 0 179.5 -38.5t55.5 -126.5q0 -55 -11 -99l-91 -398q-3 -13 -3 -37q0 -36 21.5 -52.5t68.5 -16.5h10l-53 -252h-10q-57 0 -89.5 -25t-46.5 -81l-69 -283
q-34 -142 -110 -203.5t-226 -61.5h-170l54 253h72q55 0 86 23t42 74z" />
    <glyph glyph-name="asciitilde" unicode="~" horiz-adv-x="1006" 
d="M97 449q23 134 87 202t157 68q40 0 82.5 -19t76.5 -38t55 -19t32.5 10.5t18.5 41.5l5 20h206l-5 -22q-65 -266 -242 -266q-40 0 -82 18.5t-76 37.5t-55 19q-40 0 -53 -55l-4 -17h-206z" />
    <glyph glyph-name="uni00A0" unicode="&#xa0;" horiz-adv-x="375" 
 />
    <glyph glyph-name="exclamdown" unicode="&#xa1;" horiz-adv-x="552" 
d="M79 770h259l-174 -924h-307zM304 1220q72 0 110 -35t38 -101q0 -90 -61.5 -159.5t-165.5 -69.5q-69 0 -108.5 35t-39.5 96q0 96 63.5 165t163.5 69z" />
    <glyph glyph-name="cent" unicode="&#xa2;" horiz-adv-x="887" 
d="M234 -148l27 126q-141 7 -220.5 83.5t-79.5 196.5q0 49 8 82l103 481q41 190 155.5 290t296.5 108l27 129h67l-27 -131q279 -15 279 -270q0 -61 -15 -135l-14 -63h-278l21 103q8 35 8 59q0 62 -51 74l-160 -760q33 11 59 38.5t33 62.5l19 90h278l-21 -100
q-29 -145 -143.5 -237t-277.5 -101l-28 -126h-66zM266 300q0 -52 48 -71l160 756q-42 -10 -62.5 -44.5t-32.5 -93.5l-111 -521q-2 -9 -2 -26z" />
    <glyph glyph-name="sterling" unicode="&#xa3;" horiz-adv-x="1107" 
d="M38 254h114l84 396h-108l43 203h109l70 331q37 176 151 274t296 98q255 0 331 -201l-249 -152q-22 41 -48.5 60.5t-69.5 19.5q-103 0 -128 -119l-65 -311h352l-43 -203h-351l-86 -396h442l-54 -254h-845z" />
    <glyph glyph-name="currency" unicode="&#xa4;" horiz-adv-x="943" 
d="M710 382l84 -106l-154 -128l-90 115q-85 -38 -186 -38q-103 0 -173 38l-140 -115l-99 128l128 106q-19 57 -19 111q0 66 26.5 136.5t72.5 128.5l-83 106l153 128l93 -115q85 38 187 38q101 0 171 -38l138 115l99 -128l-128 -106q21 -48 21 -106q0 -147 -101 -270z
M323 541q0 -37 23.5 -59.5t66.5 -22.5q61 0 99 42.5t38 99.5q0 37 -23.5 58.5t-65.5 21.5q-62 0 -100 -42.5t-38 -97.5z" />
    <glyph glyph-name="yen" unicode="&#xa5;" horiz-adv-x="1020" 
d="M647 650h246l-36 -169h-260l-24 -111h260l-36 -169h-259l-43 -201h-300l42 201h-206l36 169h206l24 111h-207l36 169h195l-137 886h308l44 -650l317 650h311z" />
    <glyph glyph-name="brokenbar" unicode="&#xa6;" horiz-adv-x="453" 
d="M171 988l158 755h205l-159 -755h-204zM324 751l-186 -879h-205l186 879h205z" />
    <glyph glyph-name="section" unicode="&#xa7;" horiz-adv-x="839" 
d="M507 1234q8 35 8 56q0 50 -51 50q-80 0 -80 -89q0 -45 27 -72q24 -24 79 -41q46 -14 81.5 -34t68.5 -53t50.5 -85t17.5 -121q0 -51 -12 -107t-49.5 -123t-95.5 -106q65 -65 65 -159q0 -167 -120 -271.5t-289 -104.5q-128 0 -206 66.5t-78 181.5q0 26 9 75h269
q-5 -23 -5 -44q0 -57 57 -57q48 0 67.5 35.5t19.5 85.5q0 27 -16 39.5t-65 30.5q-119 44 -184 120t-65 208q0 86 45 177.5t121 141.5q-68 68 -68 181q0 153 116 250t286 97q130 0 204 -63.5t74 -180.5q0 -51 -8 -84h-273zM268 730q0 -34 15 -49t52 -15q59 0 78.5 27.5
t19.5 83.5q0 33 -15.5 48.5t-50.5 15.5q-53 0 -76 -27t-23 -84z" />
    <glyph glyph-name="dieresis" unicode="&#xa8;" horiz-adv-x="1058" 
d="M227 1717q-63 0 -100.5 33t-37.5 88q0 82 58.5 146t149.5 64q65 0 101.5 -34t36.5 -92q0 -82 -59 -143.5t-149 -61.5zM724 2048q63 0 100.5 -34t37.5 -91q0 -82 -59 -144t-149 -62q-64 0 -101.5 34t-37.5 90q0 80 59.5 143.5t149.5 63.5z" />
    <glyph glyph-name="copyright" unicode="&#xa9;" horiz-adv-x="1090" 
d="M302 758q56 269 328 269q217 0 217 -182q0 -41 -11 -94l-8 -43h-190l14 70q5 23 5 39q0 53 -55 53q-42 0 -61 -24t-29 -71l-75 -355q-2 -7 -2 -17q0 -24 16 -38.5t42 -14.5q29 0 54 20.5t30 49.5l12 61h189l-15 -68q-23 -104 -107.5 -168t-203.5 -64q-105 0 -165 52
t-60 139q0 30 7 58zM481 140q129 0 237.5 71.5t171 195t62.5 271.5q0 163 -91.5 273.5t-244.5 110.5q-130 0 -238 -73.5t-169.5 -197t-61.5 -267.5q0 -167 93 -275.5t241 -108.5zM9 512q0 138 48 264.5t130 219t196 147.5t240 55q200 0 329.5 -144t129.5 -370
q0 -187 -80.5 -344.5t-222 -249.5t-310.5 -92q-197 0 -328.5 143.5t-131.5 370.5z" />
    <glyph glyph-name="guillemotleft" unicode="&#xab;" horiz-adv-x="1008" 
d="M256 556l184 -382h-298l-186 382l348 383h298zM686 939h299l-347 -383l185 -382h-299l-186 382z" />
    <glyph glyph-name="logicalnot" unicode="&#xac;" horiz-adv-x="1211" 
d="M887 276h-266l53 183h-536l55 239h785z" />
    <glyph glyph-name="registered" unicode="&#xae;" horiz-adv-x="960" 
d="M608 1562q137 0 224.5 -86.5t87.5 -217.5q0 -114 -66.5 -220.5t-176.5 -172t-230 -65.5q-136 0 -223 86.5t-87 216.5q0 85 39.5 169t103.5 147.5t151 103t177 39.5zM249 1120q0 -95 60.5 -157t158.5 -62q132 0 235.5 104.5t103.5 236.5q0 95 -61 157t-159 62
q-132 0 -235 -104.5t-103 -236.5zM579 1384q60 0 92 -24t32 -70q0 -32 -9.5 -62t-39 -59.5t-75.5 -38.5l73 -140h-116l-62 135h-10l-29 -135h-102l83 394h163zM534 1208q60 0 60 53q0 33 -41 33h-53l-19 -86h53z" />
    <glyph glyph-name="macron" unicode="&#xaf;" horiz-adv-x="1266" 
d="M1005 1130l-48 -222h-590l48 222h590z" />
    <glyph glyph-name="degree" unicode="&#xb0;" horiz-adv-x="727" 
d="M387 981q-102 0 -159 55t-57 154q0 150 92.5 259t246.5 109q106 0 166 -53.5t60 -152.5q0 -96 -41 -179.5t-122 -137.5t-186 -54zM375 1237q0 -32 15 -51.5t37 -19.5q53 0 80 47t27 96q0 65 -63 65q-47 0 -71.5 -44.5t-24.5 -92.5z" />
    <glyph glyph-name="plusminus" unicode="&#xb1;" horiz-adv-x="1211" 
d="M957 575h-257l-50 -229h-269l49 229h-258l55 256h258l47 229h270l-48 -229h258zM104 239h785l-54 -239h-786z" />
    <glyph glyph-name="uni00B2" unicode="&#xb2;" horiz-adv-x="498" 
d="M-31 131q86 58 126 86t87 65.5t65 60.5t30.5 51.5t12.5 59.5t-12 41t-31 10q-28 0 -39.5 -22t-11.5 -68v-26h-167q0 21 2 31q12 222 222 222q211 0 211 -162q0 -58 -17 -104t-57 -86.5t-83 -71t-118 -75.5h221l-21 -143h-438z" />
    <glyph glyph-name="uni00B3" unicode="&#xb3;" horiz-adv-x="498" 
d="M196 -14q-50 0 -89.5 10t-72.5 33.5t-48 68t-8 107.5h177q-12 -82 36 -82q31 0 43.5 19.5t12.5 58.5q0 28 -11.5 40.5t-39.5 12.5h-25l22 140h25q42 0 58 17.5t16 54.5q0 41 -39 41q-25 0 -36.5 -13t-15.5 -47h-174q13 195 229 195q40 0 70.5 -4.5t67 -18t57 -45.5
t20.5 -81q0 -66 -38.5 -114.5t-101.5 -55.5q94 -16 94 -128q0 -99 -59 -154t-170 -55z" />
    <glyph glyph-name="acute" unicode="&#xb4;" horiz-adv-x="1058" 
d="M1043 1282l-313 -292h-274l254 292h333z" />
    <glyph glyph-name="uni00B5" unicode="&#xb5;" horiz-adv-x="1041" 
d="M338 -24q-72 0 -111 43l-84 -394h-286l264 1249h287l-106 -502q-7 -40 -7 -48q0 -88 104 -88q74 0 118 45t65 146l96 447h286l-186 -874h-252l22 101q-38 -60 -93 -92.5t-117 -32.5z" />
    <glyph glyph-name="paragraph" unicode="&#xb6;" horiz-adv-x="1109" 
d="M335 990q-117 0 -183.5 56.5t-66.5 151.5q0 158 111 248t289 90h227l-379 -1782h-246l263 1236h-15zM804 1536h246l-379 -1782h-246z" />
    <glyph glyph-name="cedilla" unicode="&#xb8;" horiz-adv-x="402" 
d="M126 19h98l-33 -74q18 6 39 6q60 0 108 -35.5t48 -110.5q0 -21 -5 -46q-29 -133 -181 -133q-94 0 -183 57l19 88q89 -54 157 -54q41 0 64 25t23 62q0 83 -210 83z" />
    <glyph glyph-name="uni00B9" unicode="&#xb9;" horiz-adv-x="390" 
d="M22 386l26 164l302 78l-111 -628h-172l73 410z" />
    <glyph glyph-name="guillemotright" unicode="&#xbb;" horiz-adv-x="1008" 
d="M531 556l-350 -382h-299l348 382l-186 383h299zM613 556l-186 383h298l188 -383l-350 -382h-298z" />
    <glyph glyph-name="questiondown" unicode="&#xbf;" horiz-adv-x="675" 
d="M529 1220q72 0 110.5 -35t38.5 -101q0 -90 -61.5 -159.5t-165.5 -69.5q-69 0 -109 35t-40 96q0 96 63.5 165t163.5 69zM568 770q-24 -150 -48.5 -251t-51 -157.5t-45.5 -82.5t-51 -54q-9 -8 -55.5 -40.5t-85 -62t-72 -71t-33.5 -75.5q0 -30 20.5 -49t60.5 -19
q113 0 226 136l175 -136q-77 -109 -197 -178.5t-261 -69.5q-59 0 -110.5 14.5t-94.5 44t-68 82t-25 122.5q0 55 18 107t44.5 90t65 77t71 65t71.5 57t59 50q39 36 64.5 118t53.5 283h269z" />
    <glyph glyph-name="Agrave" unicode="&#xc0;" horiz-adv-x="1145" 
d="M676 447h-318l-174 -447h-293l653 1536h417v-1536h-299zM684 703l14 584l-237 -584h223zM495 1980h333l131 -292h-275z" />
    <glyph glyph-name="Aacute" unicode="&#xc1;" horiz-adv-x="1145" 
d="M676 447h-318l-174 -447h-293l653 1536h417v-1536h-299zM684 703l14 584l-237 -584h223zM1217 1980l-312 -292h-275l254 292h333z" />
    <glyph glyph-name="Acircumflex" unicode="&#xc2;" horiz-adv-x="1145" 
d="M676 447h-318l-174 -447h-293l653 1536h417v-1536h-299zM684 703l14 584l-237 -584h223zM848 1819l-133 -131h-285l311 292h283l188 -292h-285z" />
    <glyph glyph-name="Atilde" unicode="&#xc3;" horiz-adv-x="1145" 
d="M676 447h-318l-174 -447h-293l653 1536h417v-1536h-299zM684 703l14 584l-237 -584h223zM910 1691q-70 0 -140 46q-46 29 -72 29q-22 0 -35.5 -16t-20.5 -55h-207q61 288 248 288q69 0 140 -46q46 -29 71 -29q22 0 36 16.5t21 55.5h206q-61 -289 -247 -289z" />
    <glyph glyph-name="Adieresis" unicode="&#xc4;" horiz-adv-x="1145" 
d="M676 447h-318l-174 -447h-293l653 1536h417v-1536h-299zM684 703l14 584l-237 -584h223zM563 1621q-53 0 -85.5 32.5t-32.5 80.5q0 68 55 121t125 53q55 0 84.5 -34.5t29.5 -83.5q0 -63 -53.5 -116t-122.5 -53zM1050 1908q55 0 84.5 -34t29.5 -84q0 -62 -54.5 -115.5
t-119.5 -53.5q-54 0 -86 33t-32 82q0 67 55 119.5t123 52.5z" />
    <glyph glyph-name="Aring" unicode="&#xc5;" horiz-adv-x="1145" 
d="M676 447h-318l-174 -447h-293l653 1536h417v-1536h-299zM684 703l14 584l-237 -584h223zM777 1649q-96 0 -156 54.5t-60 137.5q0 115 97.5 203.5t220.5 88.5q97 0 156 -56t59 -142q0 -104 -95.5 -195t-221.5 -91zM739 1865q0 -59 70 -59q52 0 79 34.5t27 76.5
q0 28 -18.5 43.5t-51.5 15.5q-52 0 -79 -35.5t-27 -75.5z" />
    <glyph glyph-name="AE" unicode="&#xc6;" horiz-adv-x="1769" 
d="M1556 259l-56 -259h-718l95 447h-399l-174 -447h-294l654 1536h1164l-56 -261h-422l-72 -335h357l-53 -256h-357l-90 -425h421zM932 703l119 563h-239l-232 -563h352z" />
    <glyph glyph-name="Ccedilla" unicode="&#xc7;" horiz-adv-x="1027" 
d="M355 -26h-5l-21 -46q15 5 40 5t51.5 -6t56 -20.5t48 -45t18.5 -73.5q0 -82 -59 -130.5t-156 -48.5q-104 0 -191 56l37 120q74 -55 142 -55q90 0 90 48q0 68 -225 68l53 145q-116 33 -185 125.5t-69 216.5q0 50 10 99l140 665q27 126 112 233t204.5 169.5t244.5 62.5
q167 0 270.5 -104.5t103.5 -264.5q0 -50 -10 -96l-29 -136h-299l38 174q3 15 3 31q0 56 -36.5 93.5t-94.5 37.5q-66 0 -122 -48t-70 -114l-157 -741q-3 -12 -3 -37q0 -53 34.5 -88t91.5 -35q67 0 125 47t72 113l37 179h299l-29 -141q-40 -191 -203 -324.5t-357 -133.5z" />
    <glyph glyph-name="Egrave" unicode="&#xc8;" horiz-adv-x="855" 
d="M696 259l-56 -259h-719l328 1536h719l-57 -261h-421l-72 -335h357l-53 -256h-357l-90 -425h421zM333 1980h333l131 -292h-275z" />
    <glyph glyph-name="Eacute" unicode="&#xc9;" horiz-adv-x="855" 
d="M696 259l-56 -259h-719l328 1536h719l-57 -261h-421l-72 -335h357l-53 -256h-357l-90 -425h421zM1055 1980l-313 -292h-274l254 292h333z" />
    <glyph glyph-name="Ecircumflex" unicode="&#xca;" horiz-adv-x="855" 
d="M696 259l-56 -259h-719l328 1536h719l-57 -261h-421l-72 -335h357l-53 -256h-357l-90 -425h421zM686 1819l-133 -131h-285l311 292h283l188 -292h-285z" />
    <glyph glyph-name="Edieresis" unicode="&#xcb;" horiz-adv-x="855" 
d="M696 259l-56 -259h-719l328 1536h719l-57 -261h-421l-72 -335h357l-53 -256h-357l-90 -425h421zM401 1621q-53 0 -85.5 32.5t-32.5 80.5q0 68 55 121t125 53q55 0 84.5 -34.5t29.5 -83.5q0 -63 -53.5 -116t-122.5 -53zM887 1908q55 0 85 -34t30 -84q0 -62 -54.5 -115.5
t-119.5 -53.5q-54 0 -86 33t-32 82q0 67 54.5 119.5t122.5 52.5z" />
    <glyph glyph-name="Igrave" unicode="&#xcc;" horiz-adv-x="467" 
d="M546 1536l-328 -1536h-297l328 1536h297zM133 1980h333l131 -292h-274z" />
    <glyph glyph-name="Iacute" unicode="&#xcd;" horiz-adv-x="467" 
d="M546 1536l-328 -1536h-297l328 1536h297zM855 1980l-312 -292h-275l254 292h333z" />
    <glyph glyph-name="Icircumflex" unicode="&#xce;" horiz-adv-x="467" 
d="M546 1536l-328 -1536h-297l328 1536h297zM486 1819l-133 -131h-285l311 292h283l188 -292h-285z" />
    <glyph glyph-name="Idieresis" unicode="&#xcf;" horiz-adv-x="467" 
d="M546 1536l-328 -1536h-297l328 1536h297zM201 1621q-53 0 -85 32.5t-32 80.5q0 68 54.5 121t124.5 53q55 0 84.5 -34.5t29.5 -83.5q0 -63 -53.5 -116t-122.5 -53zM688 1908q55 0 84.5 -34t29.5 -84q0 -62 -54.5 -115.5t-119.5 -53.5q-54 0 -86 33t-32 82q0 67 55 119.5
t123 52.5z" />
    <glyph glyph-name="Eth" unicode="&#xd0;" horiz-adv-x="1257" 
d="M278 954l125 582h435q165 0 256.5 -99.5t91.5 -260.5q0 -58 -14 -126l-119 -564q-43 -206 -194.5 -346t-348.5 -140h-435l152 712h-87l51 242h87zM519 261q76 0 141 54.5t82 131.5l137 642q3 13 3 36q0 65 -41 107.5t-107 42.5h-91l-68 -321h155l-51 -242h-155l-96 -451
h91z" />
    <glyph glyph-name="Eth" unicode="&#xf0;" horiz-adv-x="1257" 
d="M278 954l125 582h435q165 0 256.5 -99.5t91.5 -260.5q0 -58 -14 -126l-119 -564q-43 -206 -194.5 -346t-348.5 -140h-435l152 712h-87l51 242h87zM519 261q76 0 141 54.5t82 131.5l137 642q3 13 3 36q0 65 -41 107.5t-107 42.5h-91l-68 -321h155l-51 -242h-155l-96 -451
h91z" />
    <glyph glyph-name="Ntilde" unicode="&#xd1;" horiz-adv-x="1087" 
d="M-79 0l328 1536h393l-17 -1137l242 1137h299l-328 -1536h-387l8 1152l-246 -1152h-292zM893 1691q-70 0 -140 46q-46 29 -72 29q-22 0 -35.5 -16t-20.5 -55h-207q61 288 248 288q69 0 140 -46q46 -29 71 -29q22 0 36 16.5t21 55.5h206q-61 -289 -247 -289z" />
    <glyph glyph-name="Ograve" unicode="&#xd2;" horiz-adv-x="1044" 
d="M691 1562q167 0 271.5 -104t104.5 -262q0 -98 -152 -764q-54 -236 -191.5 -347t-368.5 -111q-165 0 -270 103.5t-105 260.5q0 22 52.5 287.5t97.5 471.5q32 146 117.5 253.5t200 159.5t243.5 52zM285 358q0 -55 34.5 -89.5t91.5 -34.5q67 0 124 45.5t73 114.5
q29 122 94.5 439.5t65.5 332.5q0 56 -36.5 93.5t-94.5 37.5q-66 0 -122 -48t-70 -114q-20 -88 -59.5 -277t-70 -341.5t-30.5 -158.5zM411 1980h333l132 -292h-275z" />
    <glyph glyph-name="Oacute" unicode="&#xd3;" horiz-adv-x="1044" 
d="M691 1562q167 0 271.5 -104t104.5 -262q0 -98 -152 -764q-54 -236 -191.5 -347t-368.5 -111q-165 0 -270 103.5t-105 260.5q0 22 52.5 287.5t97.5 471.5q32 146 117.5 253.5t200 159.5t243.5 52zM285 358q0 -55 34.5 -89.5t91.5 -34.5q67 0 124 45.5t73 114.5
q29 122 94.5 439.5t65.5 332.5q0 56 -36.5 93.5t-94.5 37.5q-66 0 -122 -48t-70 -114q-20 -88 -59.5 -277t-70 -341.5t-30.5 -158.5zM1133 1980l-312 -292h-275l254 292h333z" />
    <glyph glyph-name="Ocircumflex" unicode="&#xd4;" horiz-adv-x="1044" 
d="M691 1562q167 0 271.5 -104t104.5 -262q0 -98 -152 -764q-54 -236 -191.5 -347t-368.5 -111q-165 0 -270 103.5t-105 260.5q0 22 52.5 287.5t97.5 471.5q32 146 117.5 253.5t200 159.5t243.5 52zM285 358q0 -55 34.5 -89.5t91.5 -34.5q67 0 124 45.5t73 114.5
q29 122 94.5 439.5t65.5 332.5q0 56 -36.5 93.5t-94.5 37.5q-66 0 -122 -48t-70 -114q-20 -88 -59.5 -277t-70 -341.5t-30.5 -158.5zM765 1819l-134 -131h-285l311 292h283l188 -292h-285z" />
    <glyph glyph-name="Otilde" unicode="&#xd5;" horiz-adv-x="1044" 
d="M691 1562q167 0 271.5 -104t104.5 -262q0 -98 -152 -764q-54 -236 -191.5 -347t-368.5 -111q-165 0 -270 103.5t-105 260.5q0 22 52.5 287.5t97.5 471.5q32 146 117.5 253.5t200 159.5t243.5 52zM285 358q0 -55 34.5 -89.5t91.5 -34.5q67 0 124 45.5t73 114.5
q29 122 94.5 439.5t65.5 332.5q0 56 -36.5 93.5t-94.5 37.5q-66 0 -122 -48t-70 -114q-20 -88 -59.5 -277t-70 -341.5t-30.5 -158.5zM826 1691q-70 0 -140 46q-46 29 -72 29q-22 0 -35.5 -16t-20.5 -55h-206q61 288 247 288q69 0 140 -46q46 -29 72 -29q22 0 35.5 16.5
t20.5 55.5h206q-61 -289 -247 -289z" />
    <glyph glyph-name="Odieresis" unicode="&#xd6;" horiz-adv-x="1044" 
d="M691 1562q167 0 271.5 -104t104.5 -262q0 -98 -152 -764q-54 -236 -191.5 -347t-368.5 -111q-165 0 -270 103.5t-105 260.5q0 22 52.5 287.5t97.5 471.5q32 146 117.5 253.5t200 159.5t243.5 52zM285 358q0 -55 34.5 -89.5t91.5 -34.5q67 0 124 45.5t73 114.5
q29 122 94.5 439.5t65.5 332.5q0 56 -36.5 93.5t-94.5 37.5q-66 0 -122 -48t-70 -114q-20 -88 -59.5 -277t-70 -341.5t-30.5 -158.5zM480 1621q-53 0 -85.5 32.5t-32.5 80.5q0 68 54.5 121t124.5 53q55 0 84.5 -34.5t29.5 -83.5q0 -63 -53 -116t-122 -53zM966 1908
q55 0 84.5 -34t29.5 -84q0 -62 -54.5 -115.5t-119.5 -53.5q-54 0 -86 33t-32 82q0 67 55 119.5t123 52.5z" />
    <glyph glyph-name="multiply" unicode="&#xd7;" horiz-adv-x="1211" 
d="M906 319l-211 -174l-174 222l-270 -222l-137 174l270 222l-176 222l212 174l174 -222l270 222l136 -174l-268 -222z" />
    <glyph glyph-name="Oslash" unicode="&#xd8;" horiz-adv-x="1283" 
d="M845 1562q117 0 205 -53.5t133 -144.5l133 141h159l-258 -271q2 -12 2 -44q0 -43 -11 -93l-140 -658q-27 -125 -110.5 -230.5t-202.5 -166.5t-246 -61q-105 0 -188 43.5t-133 120.5l-137 -145h-159l250 263q-9 47 -9 80q0 47 10 96l140 658q27 126 112 233t205 169.5
t245 62.5zM439 365q0 -55 34.5 -89.5t91.5 -34.5q67 0 124.5 46.5t71.5 113.5l97 452l-413 -437q-6 -23 -6 -51zM918 1135q4 20 4 31q0 55 -37 93t-95 38q-66 0 -121.5 -48t-69.5 -114l-107 -502l413 437z" />
    <glyph glyph-name="Ugrave" unicode="&#xd9;" horiz-adv-x="1022" 
d="M860 404q-37 -176 -189 -303t-328 -127q-151 0 -248 96.5t-97 243.5q0 41 11 90l240 1132h299l-248 -1167q-3 -13 -3 -29q0 -46 28 -73.5t74 -27.5q53 0 99.5 38t57.5 92l248 1167h297zM406 1980h333l131 -292h-274z" />
    <glyph glyph-name="Uacute" unicode="&#xda;" horiz-adv-x="1022" 
d="M860 404q-37 -176 -189 -303t-328 -127q-151 0 -248 96.5t-97 243.5q0 41 11 90l240 1132h299l-248 -1167q-3 -13 -3 -29q0 -46 28 -73.5t74 -27.5q53 0 99.5 38t57.5 92l248 1167h297zM1128 1980l-312 -292h-275l254 292h333z" />
    <glyph glyph-name="Ucircumflex" unicode="&#xdb;" horiz-adv-x="1022" 
d="M860 404q-37 -176 -189 -303t-328 -127q-151 0 -248 96.5t-97 243.5q0 41 11 90l240 1132h299l-248 -1167q-3 -13 -3 -29q0 -46 28 -73.5t74 -27.5q53 0 99.5 38t57.5 92l248 1167h297zM759 1819l-133 -131h-285l311 292h283l188 -292h-285z" />
    <glyph glyph-name="Udieresis" unicode="&#xdc;" horiz-adv-x="1022" 
d="M860 404q-37 -176 -189 -303t-328 -127q-151 0 -248 96.5t-97 243.5q0 41 11 90l240 1132h299l-248 -1167q-3 -13 -3 -29q0 -46 28 -73.5t74 -27.5q53 0 99.5 38t57.5 92l248 1167h297zM474 1621q-53 0 -85 32.5t-32 80.5q0 68 54.5 121t124.5 53q55 0 84.5 -34.5
t29.5 -83.5q0 -63 -53.5 -116t-122.5 -53zM961 1908q55 0 84.5 -34t29.5 -84q0 -62 -54.5 -115.5t-119.5 -53.5q-54 0 -86 33t-32 82q0 67 55 119.5t123 52.5z" />
    <glyph glyph-name="Yacute" unicode="&#xdd;" horiz-adv-x="1020" 
d="M626 616l-131 -616h-300l131 616l-142 920h308l44 -650l317 650h311zM1111 1980l-312 -292h-275l254 292h333z" />
    <glyph glyph-name="Thorn" unicode="&#xde;" horiz-adv-x="1109" 
d="M-79 -341l400 1877h240l-102 -476q52 77 127.5 116t161.5 39q112 0 180.5 -73.5t68.5 -184.5q0 -34 -7 -68l-108 -507q-15 -72 -35 -129t-51.5 -109.5t-71.5 -87.5t-96.5 -55.5t-125.5 -20.5q-78 0 -125.5 39t-57.5 99l-97 -459h-301zM364 329q-2 -9 -2 -24
q0 -36 22.5 -58t59.5 -22q43 0 78 29.5t46 74.5l115 531q1 3 1 22q0 35 -22.5 58t-60.5 23q-43 0 -78.5 -29.5t-44.5 -71.5z" />
    <glyph glyph-name="germandbls" unicode="&#xdf;" horiz-adv-x="977" 
d="M679 790q220 -38 220 -281q0 -129 -65.5 -245.5t-184.5 -190t-262 -73.5h-75l65 309h26q94 0 150 56.5t56 136.5q0 48 -23 77.5t-74 29.5h-70l68 316q83 10 123.5 71t40.5 139q0 107 -77 107q-31 0 -57.5 -20t-45 -53.5t-30.5 -66.5t-20 -69l-224 -1033h-285l224 1048
q22 106 64.5 196t104.5 162t149 113t189 41q141 0 225.5 -80t84.5 -246q0 -66 -18.5 -135t-54 -132.5t-94 -111.5t-130.5 -65z" />
    <glyph glyph-name="agrave" unicode="&#xe0;" horiz-adv-x="884" 
d="M372 75q-71 -95 -206 -95q-105 0 -169.5 69t-64.5 190q0 98 35.5 191t102.5 169t176 122.5t242 46.5h17l26 123q7 35 7 44q0 53 -52 53q-74 0 -92 -94l-10 -51h-290l20 91q30 134 149.5 209.5t282.5 75.5q156 0 233.5 -55t77.5 -154q0 -32 -7 -66l-200 -944h-295z
M239 287q0 -91 60 -91q48 0 74.5 31.5t42.5 108.5l55 255h-26q-50 0 -88.5 -23t-60 -56.5t-35.5 -77.5t-18 -79t-4 -68zM282 1638h332l132 -291h-275z" />
    <glyph glyph-name="aacute" unicode="&#xe1;" horiz-adv-x="884" 
d="M372 75q-71 -95 -206 -95q-105 0 -169.5 69t-64.5 190q0 98 35.5 191t102.5 169t176 122.5t242 46.5h17l26 123q7 35 7 44q0 53 -52 53q-74 0 -92 -94l-10 -51h-290l20 91q30 134 149.5 209.5t282.5 75.5q156 0 233.5 -55t77.5 -154q0 -32 -7 -66l-200 -944h-295z
M239 287q0 -91 60 -91q48 0 74.5 31.5t42.5 108.5l55 255h-26q-50 0 -88.5 -23t-60 -56.5t-35.5 -77.5t-18 -79t-4 -68zM1004 1638l-313 -291h-275l255 291h333z" />
    <glyph glyph-name="acircumflex" unicode="&#xe2;" horiz-adv-x="884" 
d="M372 75q-71 -95 -206 -95q-105 0 -169.5 69t-64.5 190q0 98 35.5 191t102.5 169t176 122.5t242 46.5h17l26 123q7 35 7 44q0 53 -52 53q-74 0 -92 -94l-10 -51h-290l20 91q30 134 149.5 209.5t282.5 75.5q156 0 233.5 -55t77.5 -154q0 -32 -7 -66l-200 -944h-295z
M239 287q0 -91 60 -91q48 0 74.5 31.5t42.5 108.5l55 255h-26q-50 0 -88.5 -23t-60 -56.5t-35.5 -77.5t-18 -79t-4 -68zM635 1478l-133 -131h-285l310 291h284l187 -291h-285z" />
    <glyph glyph-name="atilde" unicode="&#xe3;" horiz-adv-x="884" 
d="M372 75q-71 -95 -206 -95q-105 0 -169.5 69t-64.5 190q0 98 35.5 191t102.5 169t176 122.5t242 46.5h17l26 123q7 35 7 44q0 53 -52 53q-74 0 -92 -94l-10 -51h-290l20 91q30 134 149.5 209.5t282.5 75.5q156 0 233.5 -55t77.5 -154q0 -32 -7 -66l-200 -944h-295z
M239 287q0 -91 60 -91q48 0 74.5 31.5t42.5 108.5l55 255h-26q-50 0 -88.5 -23t-60 -56.5t-35.5 -77.5t-18 -79t-4 -68zM696 1350q-70 0 -140 46q-46 29 -71 29q-22 0 -36 -16.5t-21 -55.5h-206q61 289 247 289q69 0 140 -46q46 -29 72 -29q22 0 35.5 16t20.5 55h207
q-61 -288 -248 -288z" />
    <glyph glyph-name="adieresis" unicode="&#xe4;" horiz-adv-x="884" 
d="M372 75q-71 -95 -206 -95q-105 0 -169.5 69t-64.5 190q0 98 35.5 191t102.5 169t176 122.5t242 46.5h17l26 123q7 35 7 44q0 53 -52 53q-74 0 -92 -94l-10 -51h-290l20 91q30 134 149.5 209.5t282.5 75.5q156 0 233.5 -55t77.5 -154q0 -32 -7 -66l-200 -944h-295z
M239 287q0 -91 60 -91q48 0 74.5 31.5t42.5 108.5l55 255h-26q-50 0 -88.5 -23t-60 -56.5t-35.5 -77.5t-18 -79t-4 -68zM350 1280q-53 0 -85.5 32.5t-32.5 80.5q0 68 54.5 121t124.5 53q55 0 85 -34.5t30 -83.5q0 -63 -53.5 -116t-122.5 -53zM836 1567q55 0 85 -34t30 -84
q0 -62 -54.5 -115.5t-119.5 -53.5q-55 0 -86.5 32.5t-31.5 81.5q0 67 54.5 120t122.5 53z" />
    <glyph glyph-name="aring" unicode="&#xe5;" horiz-adv-x="884" 
d="M372 75q-71 -95 -206 -95q-105 0 -169.5 69t-64.5 190q0 98 35.5 191t102.5 169t176 122.5t242 46.5h17l26 123q7 35 7 44q0 53 -52 53q-74 0 -92 -94l-10 -51h-290l20 91q30 134 149.5 209.5t282.5 75.5q156 0 233.5 -55t77.5 -154q0 -32 -7 -66l-200 -944h-295z
M239 287q0 -91 60 -91q48 0 74.5 31.5t42.5 108.5l55 255h-26q-50 0 -88.5 -23t-60 -56.5t-35.5 -77.5t-18 -79t-4 -68zM563 1307q-96 0 -155.5 55t-59.5 138q0 115 97.5 203.5t220.5 88.5q97 0 156 -56t59 -142q0 -104 -96 -195.5t-222 -91.5zM526 1524q0 -60 70 -60
q52 0 78.5 34.5t26.5 76.5q0 28 -18.5 44t-51.5 16q-52 0 -78.5 -35.5t-26.5 -75.5z" />
    <glyph glyph-name="ae" unicode="&#xe6;" horiz-adv-x="1336" 
d="M445 591q-47 0 -84.5 -22t-60 -55t-37 -76t-19.5 -80t-5 -71q0 -91 60 -91q48 0 74.5 31.5t42.5 108.5l55 255h-26zM488 768h17l34 160q5 25 5 45q0 53 -49 53q-71 0 -92 -94l-19 -89h-290l20 91q30 134 149.5 209.5t282.5 75.5q149 0 231 -48q99 44 233 44
q314 0 314 -270q0 -65 -15 -141l-61 -290h-487l-36 -174q-3 -15 -3 -35q0 -35 23 -56.5t64 -21.5q42 0 78 30.5t45 73.5l12 60h278l-10 -45q-38 -163 -162 -264.5t-302 -101.5q-76 0 -130 20h-263l17 75q-20 -26 -40 -44t-64.5 -34.5t-101.5 -16.5q-104 0 -169 69.5
t-65 189.5q0 98 35.5 191t102.5 169t176 122.5t242 46.5zM1044 862q7 35 7 53q0 80 -82 80q-61 0 -90.5 -35.5t-43.5 -104.5l-36 -166h208z" />
    <glyph glyph-name="ccedilla" unicode="&#xe7;" horiz-adv-x="887" 
d="M292 -24h-5l-21 -48q15 5 39 5q25 0 51.5 -6t56 -20.5t48.5 -45t19 -73.5q0 -82 -59 -130.5t-156 -48.5q-105 0 -192 56l38 120q74 -55 142 -55q90 0 90 48q0 68 -225 68l53 145q-100 27 -155 97.5t-55 169.5q0 49 8 82l103 481q42 198 163.5 298t315.5 100
q162 0 240.5 -67.5t78.5 -204.5q0 -61 -15 -135l-14 -63h-278l21 103q8 35 8 59q0 77 -82 77q-60 0 -88.5 -35.5t-42.5 -105.5l-111 -521q-2 -9 -2 -26q0 -34 23.5 -56t62.5 -22q41 0 76.5 30.5t44.5 73.5l19 90h278l-21 -100q-31 -153 -156 -246.5t-301 -93.5z" />
    <glyph glyph-name="egrave" unicode="&#xe8;" horiz-adv-x="911" 
d="M297 -20q-147 0 -239 82t-92 208q0 34 8 76l101 468q42 194 163.5 297.5t321.5 103.5q316 0 316 -275q0 -48 -18 -136l-61 -290h-486l-38 -183q-3 -14 -3 -26q0 -34 24 -56t64 -22q42 0 78 30.5t45 73.5l12 60h278l-10 -45q-38 -163 -162 -264.5t-302 -101.5zM594 862
q7 35 7 54q0 79 -82 79q-61 0 -91 -36t-44 -104l-36 -166h208zM290 1638h333l131 -291h-274z" />
    <glyph glyph-name="eacute" unicode="&#xe9;" horiz-adv-x="911" 
d="M297 -20q-147 0 -239 82t-92 208q0 34 8 76l101 468q42 194 163.5 297.5t321.5 103.5q316 0 316 -275q0 -48 -18 -136l-61 -290h-486l-38 -183q-3 -14 -3 -26q0 -34 24 -56t64 -22q42 0 78 30.5t45 73.5l12 60h278l-10 -45q-38 -163 -162 -264.5t-302 -101.5zM594 862
q7 35 7 54q0 79 -82 79q-61 0 -91 -36t-44 -104l-36 -166h208zM1012 1638l-312 -291h-275l254 291h333z" />
    <glyph glyph-name="ecircumflex" unicode="&#xea;" horiz-adv-x="911" 
d="M297 -20q-147 0 -239 82t-92 208q0 34 8 76l101 468q42 194 163.5 297.5t321.5 103.5q316 0 316 -275q0 -48 -18 -136l-61 -290h-486l-38 -183q-3 -14 -3 -26q0 -34 24 -56t64 -22q42 0 78 30.5t45 73.5l12 60h278l-10 -45q-38 -163 -162 -264.5t-302 -101.5zM594 862
q7 35 7 54q0 79 -82 79q-61 0 -91 -36t-44 -104l-36 -166h208zM643 1478l-133 -131h-285l311 291h283l188 -291h-285z" />
    <glyph glyph-name="edieresis" unicode="&#xeb;" horiz-adv-x="911" 
d="M297 -20q-147 0 -239 82t-92 208q0 34 8 76l101 468q42 194 163.5 297.5t321.5 103.5q316 0 316 -275q0 -48 -18 -136l-61 -290h-486l-38 -183q-3 -14 -3 -26q0 -34 24 -56t64 -22q42 0 78 30.5t45 73.5l12 60h278l-10 -45q-38 -163 -162 -264.5t-302 -101.5zM594 862
q7 35 7 54q0 79 -82 79q-61 0 -91 -36t-44 -104l-36 -166h208zM358 1280q-53 0 -85 32.5t-32 80.5q0 68 54.5 121t124.5 53q55 0 84.5 -34.5t29.5 -83.5q0 -63 -53.5 -116t-122.5 -53zM845 1567q55 0 84.5 -34t29.5 -84q0 -62 -54.5 -115.5t-119.5 -53.5q-55 0 -86.5 32.5
t-31.5 81.5q0 67 55 120t123 53z" />
    <glyph glyph-name="igrave" unicode="&#xec;" horiz-adv-x="488" 
d="M406 853l-182 -853h-287l182 853h287zM-14 1350h333l132 -292h-275z" />
    <glyph glyph-name="iacute" unicode="&#xed;" horiz-adv-x="488" 
d="M406 853l-182 -853h-287l182 853h287zM708 1350l-312 -292h-275l254 292h333z" />
    <glyph glyph-name="icircumflex" unicode="&#xee;" horiz-adv-x="488" 
d="M406 853l-182 -853h-287l182 853h287zM340 1190l-133 -132h-286l311 292h283l188 -292h-285z" />
    <glyph glyph-name="idieresis" unicode="&#xef;" horiz-adv-x="488" 
d="M406 853l-182 -853h-287l182 853h287zM55 992q-53 0 -85.5 32t-32.5 80q0 68 54.5 121t124.5 53q55 0 84.5 -34t29.5 -83q0 -63 -53 -116t-122 -53zM541 1278q55 0 84.5 -33.5t29.5 -83.5q0 -62 -54.5 -115.5t-119.5 -53.5q-54 0 -85.5 32.5t-31.5 81.5q0 67 54.5 119.5
t122.5 52.5z" />
    <glyph glyph-name="ntilde" unicode="&#xf1;" horiz-adv-x="945" 
d="M722 1220q198 0 198 -215q0 -60 -15 -126l-188 -879h-304l183 853q1 3 1 19q0 35 -23 58.5t-60 23.5q-41 0 -76.5 -30t-44.5 -71l-183 -853h-302l254 1195h309l-31 -145q14 27 35 53t55 54t84 45.5t108 17.5zM749 1350q-70 0 -140 46q-46 29 -71 29q-22 0 -36 -16.5
t-21 -55.5h-206q61 289 247 289q69 0 140 -46q46 -29 72 -29q22 0 35.5 16t20.5 55h207q-61 -288 -248 -288z" />
    <glyph glyph-name="ograve" unicode="&#xf2;" horiz-adv-x="904" 
d="M551 1220q319 0 319 -271q0 -63 -15 -137l-106 -496q-33 -155 -157 -248.5t-300 -93.5q-155 0 -243 77.5t-88 204.5q0 51 8 84l103 481q42 199 163 299t316 100zM268 326q-3 -14 -3 -27q0 -36 23.5 -57.5t63.5 -21.5q42 0 77 30.5t44 75.5l111 526q7 34 7 63
q0 37 -18.5 56t-62.5 19q-60 0 -88.5 -36t-42.5 -107zM282 1638h332l132 -291h-275z" />
    <glyph glyph-name="oacute" unicode="&#xf3;" horiz-adv-x="904" 
d="M551 1220q319 0 319 -271q0 -63 -15 -137l-106 -496q-33 -155 -157 -248.5t-300 -93.5q-155 0 -243 77.5t-88 204.5q0 51 8 84l103 481q42 199 163 299t316 100zM268 326q-3 -14 -3 -27q0 -36 23.5 -57.5t63.5 -21.5q42 0 77 30.5t44 75.5l111 526q7 34 7 63
q0 37 -18.5 56t-62.5 19q-60 0 -88.5 -36t-42.5 -107zM1004 1638l-313 -291h-275l255 291h333z" />
    <glyph glyph-name="ocircumflex" unicode="&#xf4;" horiz-adv-x="904" 
d="M551 1220q319 0 319 -271q0 -63 -15 -137l-106 -496q-33 -155 -157 -248.5t-300 -93.5q-155 0 -243 77.5t-88 204.5q0 51 8 84l103 481q42 199 163 299t316 100zM268 326q-3 -14 -3 -27q0 -36 23.5 -57.5t63.5 -21.5q42 0 77 30.5t44 75.5l111 526q7 34 7 63
q0 37 -18.5 56t-62.5 19q-60 0 -88.5 -36t-42.5 -107zM635 1478l-133 -131h-285l310 291h284l187 -291h-285z" />
    <glyph glyph-name="otilde" unicode="&#xf5;" horiz-adv-x="904" 
d="M551 1220q319 0 319 -271q0 -63 -15 -137l-106 -496q-33 -155 -157 -248.5t-300 -93.5q-155 0 -243 77.5t-88 204.5q0 51 8 84l103 481q42 199 163 299t316 100zM268 326q-3 -14 -3 -27q0 -36 23.5 -57.5t63.5 -21.5q42 0 77 30.5t44 75.5l111 526q7 34 7 63
q0 37 -18.5 56t-62.5 19q-60 0 -88.5 -36t-42.5 -107zM696 1350q-70 0 -140 46q-46 29 -71 29q-22 0 -36 -16.5t-21 -55.5h-206q61 289 247 289q69 0 140 -46q46 -29 72 -29q22 0 35.5 16t20.5 55h207q-61 -288 -248 -288z" />
    <glyph glyph-name="odieresis" unicode="&#xf6;" horiz-adv-x="904" 
d="M551 1220q319 0 319 -271q0 -63 -15 -137l-106 -496q-33 -155 -157 -248.5t-300 -93.5q-155 0 -243 77.5t-88 204.5q0 51 8 84l103 481q42 199 163 299t316 100zM268 326q-3 -14 -3 -27q0 -36 23.5 -57.5t63.5 -21.5q42 0 77 30.5t44 75.5l111 526q7 34 7 63
q0 37 -18.5 56t-62.5 19q-60 0 -88.5 -36t-42.5 -107zM350 1280q-53 0 -85.5 32.5t-32.5 80.5q0 68 54.5 121t124.5 53q55 0 85 -34.5t30 -83.5q0 -63 -53.5 -116t-122.5 -53zM836 1567q55 0 85 -34t30 -84q0 -62 -54.5 -115.5t-119.5 -53.5q-55 0 -86.5 32.5t-31.5 81.5
q0 67 54.5 120t122.5 53z" />
    <glyph glyph-name="divide" unicode="&#xf7;" horiz-adv-x="1211" 
d="M604 771q-59 0 -95 36.5t-36 93.5q0 80 60.5 138t138.5 58q59 0 95.5 -35.5t36.5 -90.5q0 -82 -60.5 -141t-139.5 -59zM193 693h785l-55 -239h-785zM454 60q-59 0 -95 36t-36 93q0 80 60.5 138.5t138.5 58.5q59 0 95.5 -36t36.5 -91q0 -82 -60.5 -140.5t-139.5 -58.5z
" />
    <glyph glyph-name="oslash" unicode="&#xf8;" horiz-adv-x="904" 
d="M-38 217q-3 15 -3 36q0 43 10 87l103 481q85 398 479 398q226 0 292 -135l79 78h148l-200 -198v-17q0 -61 -15 -135l-106 -496q-32 -153 -156.5 -246.5t-300.5 -93.5q-102 0 -176.5 34.5t-113.5 97.5l-110 -108h-148zM268 326q-3 -10 -3 -24q0 -35 24 -57.5t63 -22.5
q41 0 76.5 30.5t44.5 73.5l66 312l-259 -256zM584 852q8 35 8 61q0 75 -82 75q-60 0 -88.5 -35.5t-42.5 -105.5l-60 -279l258 255z" />
    <glyph glyph-name="ugrave" unicode="&#xf9;" horiz-adv-x="971" 
d="M164 -20q-103 0 -150.5 54.5t-47.5 149.5q0 63 15 132l186 879h304l-181 -854q-3 -11 -3 -24q0 -33 23.5 -54.5t59.5 -21.5q42 0 78 29.5t45 70.5l181 854h302l-254 -1195h-309l31 145q-18 -36 -48.5 -70t-93 -64.5t-138.5 -30.5zM311 1638h332l132 -291h-275z" />
    <glyph glyph-name="uacute" unicode="&#xfa;" horiz-adv-x="971" 
d="M164 -20q-103 0 -150.5 54.5t-47.5 149.5q0 63 15 132l186 879h304l-181 -854q-3 -11 -3 -24q0 -33 23.5 -54.5t59.5 -21.5q42 0 78 29.5t45 70.5l181 854h302l-254 -1195h-309l31 145q-18 -36 -48.5 -70t-93 -64.5t-138.5 -30.5zM1033 1638l-313 -291h-275l255 291h333z
" />
    <glyph glyph-name="ucircumflex" unicode="&#xfb;" horiz-adv-x="971" 
d="M164 -20q-103 0 -150.5 54.5t-47.5 149.5q0 63 15 132l186 879h304l-181 -854q-3 -11 -3 -24q0 -33 23.5 -54.5t59.5 -21.5q42 0 78 29.5t45 70.5l181 854h302l-254 -1195h-309l31 145q-18 -36 -48.5 -70t-93 -64.5t-138.5 -30.5zM664 1478l-133 -131h-285l310 291h284
l187 -291h-285z" />
    <glyph glyph-name="udieresis" unicode="&#xfc;" horiz-adv-x="971" 
d="M164 -20q-103 0 -150.5 54.5t-47.5 149.5q0 63 15 132l186 879h304l-181 -854q-3 -11 -3 -24q0 -33 23.5 -54.5t59.5 -21.5q42 0 78 29.5t45 70.5l181 854h302l-254 -1195h-309l31 145q-18 -36 -48.5 -70t-93 -64.5t-138.5 -30.5zM379 1280q-53 0 -85.5 32.5t-32.5 80.5
q0 68 54.5 121t124.5 53q55 0 85 -34.5t30 -83.5q0 -63 -53.5 -116t-122.5 -53zM865 1567q55 0 85 -34t30 -84q0 -62 -54.5 -115.5t-119.5 -53.5q-55 0 -86.5 32.5t-31.5 81.5q0 67 54.5 120t122.5 53z" />
    <glyph glyph-name="yacute" unicode="&#xfd;" horiz-adv-x="1047" 
d="M579 -135q-52 -123 -148 -197t-216 -74h-235l51 242h169q39 0 73.5 24t47.5 60l29 80h-208l6 1195h326l-58 -1019l378 1019h329zM1111 1638l-312 -291h-275l254 291h333z" />
    <glyph glyph-name="thorn" unicode="&#xfe;" horiz-adv-x="952" 
d="M-159 -379l413 1946h241l-108 -507q51 76 124 115.5t153 39.5q116 0 188.5 -73.5t72.5 -185.5q0 -36 -7 -67l-107 -507q-19 -90 -47 -158.5t-72 -126t-110 -87.5t-152 -30q-78 0 -125.5 39t-57.5 99l-105 -497h-301zM292 329q-4 -18 -4 -25q0 -35 23.5 -57t60.5 -22
q44 0 80 29.5t45 74.5l114 533q3 10 3 24q0 33 -23.5 55t-61.5 22q-43 0 -78.5 -29.5t-44.5 -71.5z" />
    <glyph glyph-name="ydieresis" unicode="&#xff;" horiz-adv-x="1047" 
d="M579 -135q-52 -123 -148 -197t-216 -74h-235l51 242h169q39 0 73.5 24t47.5 60l29 80h-208l6 1195h326l-58 -1019l378 1019h329zM457 1280q-53 0 -85 32.5t-32 80.5q0 68 54.5 121t124.5 53q55 0 84.5 -34.5t29.5 -83.5q0 -63 -53.5 -116t-122.5 -53zM944 1567
q55 0 84.5 -34t29.5 -84q0 -62 -54.5 -115.5t-119.5 -53.5q-55 0 -86.5 32.5t-31.5 81.5q0 67 55 120t123 53z" />
    <glyph glyph-name="Amacron" unicode="&#x100;" horiz-adv-x="1145" 
d="M676 447h-318l-174 -447h-293l653 1536h417v-1536h-299zM684 703l14 584l-237 -584h223zM1126 1980l-47 -222h-591l48 222h590z" />
    <glyph glyph-name="amacron" unicode="&#x101;" horiz-adv-x="884" 
d="M372 75q-71 -95 -206 -95q-105 0 -169.5 69t-64.5 190q0 98 35.5 191t102.5 169t176 122.5t242 46.5h17l26 123q7 35 7 44q0 53 -52 53q-74 0 -92 -94l-10 -51h-290l20 91q30 134 149.5 209.5t282.5 75.5q156 0 233.5 -55t77.5 -154q0 -32 -7 -66l-200 -944h-295z
M239 287q0 -91 60 -91q48 0 74.5 31.5t42.5 108.5l55 255h-26q-50 0 -88.5 -23t-60 -56.5t-35.5 -77.5t-18 -79t-4 -68zM913 1638l-48 -221h-590l48 221h590z" />
    <glyph glyph-name="Abreve" unicode="&#x102;" horiz-adv-x="1145" 
d="M676 447h-318l-174 -447h-293l653 1536h417v-1536h-299zM684 703l14 584l-237 -584h223zM785 1686q-130 0 -198 55t-68 157q0 28 5 61l3 21h224q-5 -23 -5 -40q0 -76 77 -76q96 0 119 116h224l-4 -21q-22 -127 -124.5 -200t-252.5 -73z" />
    <glyph glyph-name="abreve" unicode="&#x103;" horiz-adv-x="884" 
d="M372 75q-71 -95 -206 -95q-105 0 -169.5 69t-64.5 190q0 98 35.5 191t102.5 169t176 122.5t242 46.5h17l26 123q7 35 7 44q0 53 -52 53q-74 0 -92 -94l-10 -51h-290l20 91q30 134 149.5 209.5t282.5 75.5q156 0 233.5 -55t77.5 -154q0 -32 -7 -66l-200 -944h-295z
M239 287q0 -91 60 -91q48 0 74.5 31.5t42.5 108.5l55 255h-26q-50 0 -88.5 -23t-60 -56.5t-35.5 -77.5t-18 -79t-4 -68zM572 1345q-130 0 -198.5 54.5t-68.5 156.5q0 22 6 62l3 20h224q-6 -28 -6 -39q0 -77 77 -77q97 0 120 116h223l-3 -20q-22 -127 -124.5 -200t-252.5 -73
z" />
    <glyph glyph-name="Aogonek" unicode="&#x104;" horiz-adv-x="1145" 
d="M676 447h-318l-174 -447h-293l653 1536h417v-1536h-34q-98 -57 -130 -82t-32 -51q0 -31 70 -31h58l-43 -201h-114q-103 0 -162 39t-59 96q0 65 47.5 125t123.5 105h-24zM684 703l14 584l-237 -584h223z" />
    <glyph glyph-name="aogonek" unicode="&#x105;" horiz-adv-x="884" 
d="M372 75q-71 -95 -206 -95q-105 0 -169.5 69t-64.5 190q0 98 35.5 191t102.5 169t176 122.5t242 46.5h17l26 123q7 35 7 44q0 53 -52 53q-74 0 -92 -94l-10 -51h-290l20 91q30 134 149.5 209.5t282.5 75.5q156 0 233.5 -55t77.5 -154q0 -32 -7 -66l-200 -944h-22
q-95 -56 -127 -80.5t-32 -50.5q0 -31 70 -31h58l-42 -202h-115q-103 0 -161.5 39t-58.5 96q0 64 46.5 124t120.5 105h-32zM239 287q0 -91 60 -91q48 0 74.5 31.5t42.5 108.5l55 255h-26q-50 0 -88.5 -23t-60 -56.5t-35.5 -77.5t-18 -79t-4 -68z" />
    <glyph glyph-name="Cacute" unicode="&#x106;" horiz-adv-x="1027" 
d="M355 -26q-164 0 -269.5 101.5t-105.5 257.5q0 50 10 99l140 665q27 126 112 233t204.5 169.5t244.5 62.5q167 0 270.5 -104.5t103.5 -264.5q0 -50 -10 -96l-29 -136h-299l38 174q3 15 3 31q0 56 -36.5 93.5t-94.5 37.5q-66 0 -122 -48t-70 -114l-157 -741q-3 -12 -3 -37
q0 -53 34.5 -88t91.5 -35q67 0 125 47t72 113l37 179h299l-29 -141q-40 -191 -203 -324.5t-357 -133.5zM1150 1980l-312 -292h-275l254 292h333z" />
    <glyph glyph-name="cacute" unicode="&#x107;" horiz-adv-x="887" 
d="M292 -24q-155 0 -243 77.5t-88 204.5q0 49 8 82l103 481q42 198 163.5 298t315.5 100q162 0 240.5 -67.5t78.5 -204.5q0 -61 -15 -135l-14 -63h-278l21 103q8 35 8 59q0 77 -82 77q-60 0 -88.5 -35.5t-42.5 -105.5l-111 -521q-2 -9 -2 -26q0 -34 23.5 -56t62.5 -22
q41 0 76.5 30.5t44.5 73.5l19 90h278l-21 -100q-31 -153 -156 -246.5t-301 -93.5zM1000 1638l-312 -291h-275l254 291h333z" />
    <glyph glyph-name="Ccircumflex" unicode="&#x108;" horiz-adv-x="1027" 
d="M355 -26q-164 0 -269.5 101.5t-105.5 257.5q0 50 10 99l140 665q27 126 112 233t204.5 169.5t244.5 62.5q167 0 270.5 -104.5t103.5 -264.5q0 -50 -10 -96l-29 -136h-299l38 174q3 15 3 31q0 56 -36.5 93.5t-94.5 37.5q-66 0 -122 -48t-70 -114l-157 -741q-3 -12 -3 -37
q0 -53 34.5 -88t91.5 -35q67 0 125 47t72 113l37 179h299l-29 -141q-40 -191 -203 -324.5t-357 -133.5zM782 1819l-133 -131h-285l310 292h283l188 -292h-285z" />
    <glyph glyph-name="ccircumflex" unicode="&#x109;" horiz-adv-x="887" 
d="M292 -24q-155 0 -243 77.5t-88 204.5q0 49 8 82l103 481q42 198 163.5 298t315.5 100q162 0 240.5 -67.5t78.5 -204.5q0 -61 -15 -135l-14 -63h-278l21 103q8 35 8 59q0 77 -82 77q-60 0 -88.5 -35.5t-42.5 -105.5l-111 -521q-2 -9 -2 -26q0 -34 23.5 -56t62.5 -22
q41 0 76.5 30.5t44.5 73.5l19 90h278l-21 -100q-31 -153 -156 -246.5t-301 -93.5zM631 1478l-133 -131h-285l311 291h283l188 -291h-285z" />
    <glyph glyph-name="Cdotaccent" unicode="&#x10a;" horiz-adv-x="1027" 
d="M355 -26q-164 0 -269.5 101.5t-105.5 257.5q0 50 10 99l140 665q27 126 112 233t204.5 169.5t244.5 62.5q167 0 270.5 -104.5t103.5 -264.5q0 -50 -10 -96l-29 -136h-299l38 174q3 15 3 31q0 56 -36.5 93.5t-94.5 37.5q-66 0 -122 -48t-70 -114l-157 -741q-3 -12 -3 -37
q0 -53 34.5 -88t91.5 -35q67 0 125 47t72 113l37 179h299l-29 -141q-40 -191 -203 -324.5t-357 -133.5zM734 1669q-67 0 -105 32.5t-38 88.5q0 82 58.5 146t154.5 64q67 0 105 -33.5t38 -92.5q0 -81 -59 -143t-154 -62z" />
    <glyph glyph-name="cdotaccent" unicode="&#x10b;" horiz-adv-x="887" 
d="M292 -24q-155 0 -243 77.5t-88 204.5q0 49 8 82l103 481q42 198 163.5 298t315.5 100q162 0 240.5 -67.5t78.5 -204.5q0 -61 -15 -135l-14 -63h-278l21 103q8 35 8 59q0 77 -82 77q-60 0 -88.5 -35.5t-42.5 -105.5l-111 -521q-2 -9 -2 -26q0 -34 23.5 -56t62.5 -22
q41 0 76.5 30.5t44.5 73.5l19 90h278l-21 -100q-31 -153 -156 -246.5t-301 -93.5zM584 1328q-67 0 -105.5 32.5t-38.5 88.5q0 82 59 146t155 64q67 0 105 -33.5t38 -92.5q0 -81 -59 -143t-154 -62z" />
    <glyph glyph-name="Ccaron" unicode="&#x10c;" horiz-adv-x="1027" 
d="M355 -26q-164 0 -269.5 101.5t-105.5 257.5q0 50 10 99l140 665q27 126 112 233t204.5 169.5t244.5 62.5q167 0 270.5 -104.5t103.5 -264.5q0 -50 -10 -96l-29 -136h-299l38 174q3 15 3 31q0 56 -36.5 93.5t-94.5 37.5q-66 0 -122 -48t-70 -114l-157 -741q-3 -12 -3 -37
q0 -53 34.5 -88t91.5 -35q67 0 125 47t72 113l37 179h299l-29 -141q-40 -191 -203 -324.5t-357 -133.5zM835 1688h-284l-187 292h285l78 -132l133 132h285z" />
    <glyph glyph-name="ccaron" unicode="&#x10d;" horiz-adv-x="887" 
d="M292 -24q-155 0 -243 77.5t-88 204.5q0 49 8 82l103 481q42 198 163.5 298t315.5 100q162 0 240.5 -67.5t78.5 -204.5q0 -61 -15 -135l-14 -63h-278l21 103q8 35 8 59q0 77 -82 77q-60 0 -88.5 -35.5t-42.5 -105.5l-111 -521q-2 -9 -2 -26q0 -34 23.5 -56t62.5 -22
q41 0 76.5 30.5t44.5 73.5l19 90h278l-21 -100q-31 -153 -156 -246.5t-301 -93.5zM684 1347h-283l-188 291h285l79 -131l133 131h285z" />
    <glyph glyph-name="Dcaron" unicode="&#x10e;" horiz-adv-x="1018" 
d="M-79 0l328 1536h435q164 0 256.5 -100.5t92.5 -261.5q0 -57 -14 -124l-120 -564q-28 -134 -104.5 -244.5t-191.5 -176t-246 -65.5h-436zM365 261q76 0 141.5 54.5t82.5 131.5l136 642q5 23 5 37q0 63 -42.5 106t-107.5 43h-90l-215 -1014h90zM715 1688h-283l-188 292h285
l79 -132l133 132h285z" />
    <glyph glyph-name="dcaron" unicode="&#x10f;" horiz-adv-x="952" 
d="M1029 1536l-326 -1536h-240l29 135q-102 -152 -275 -152q-116 0 -190.5 71.5t-74.5 181.5q0 26 9 69l109 507q19 91 47 159.5t72 126.5t110 88.5t152 30.5q78 0 125 -40t55 -100l98 459h300zM270 333q-4 -14 -4 -22q0 -35 23.5 -57t60.5 -22q43 0 79 29.5t45 71.5
l113 532q4 14 4 22q0 36 -23 59t-61 23q-44 0 -79.5 -28.5t-45.5 -75.5zM1398 1536l-140 -367h-219l79 367h280z" />
    <glyph glyph-name="Dcroat" unicode="&#x110;" horiz-adv-x="1257" 
d="M278 954l125 582h435q164 0 256 -100.5t92 -261.5q0 -57 -14 -124l-119 -564q-43 -206 -194.5 -346t-348.5 -140h-435l152 712h-87l51 242h87zM519 261q76 0 141 54.5t82 131.5l137 642q3 13 3 36q0 64 -41 107t-107 43h-91l-68 -321h155l-51 -242h-155l-96 -451h91z" />
    <glyph glyph-name="dcroat" unicode="&#x111;" horiz-adv-x="952" 
d="M512 1253l48 222h157l20 99h301l-21 -99h133l-47 -222h-134l-266 -1253h-240l29 135q-102 -152 -275 -152q-116 0 -190.5 71.5t-74.5 181.5q0 26 9 69l109 507q19 91 47 159.5t72 126.5t110 88.5t152 30.5q78 0 125 -40t55 -100l38 176h-157zM270 333q-4 -14 -4 -22
q0 -35 23.5 -57t60.5 -22q43 0 79 29.5t45 71.5l113 532q4 14 4 22q0 36 -23 59t-61 23q-44 0 -79.5 -28.5t-45.5 -75.5z" />
    <glyph glyph-name="Emacron" unicode="&#x112;" horiz-adv-x="855" 
d="M696 259l-56 -259h-719l328 1536h719l-57 -261h-421l-72 -335h357l-53 -256h-357l-90 -425h421zM964 1980l-48 -222h-590l48 222h590z" />
    <glyph glyph-name="emacron" unicode="&#x113;" horiz-adv-x="911" 
d="M297 -20q-147 0 -239 82t-92 208q0 34 8 76l101 468q42 194 163.5 297.5t321.5 103.5q316 0 316 -275q0 -48 -18 -136l-61 -290h-486l-38 -183q-3 -14 -3 -26q0 -34 24 -56t64 -22q42 0 78 30.5t45 73.5l12 60h278l-10 -45q-38 -163 -162 -264.5t-302 -101.5zM594 862
q7 35 7 54q0 79 -82 79q-61 0 -91 -36t-44 -104l-36 -166h208zM922 1638l-48 -221h-591l48 221h591z" />
    <glyph glyph-name="Ebreve" unicode="&#x114;" horiz-adv-x="855" 
d="M696 259l-56 -259h-719l328 1536h719l-57 -261h-421l-72 -335h357l-53 -256h-357l-90 -425h421zM623 1686q-130 0 -198 55t-68 157q0 28 5 61l3 21h224q-5 -23 -5 -40q0 -76 76 -76q97 0 120 116h224l-4 -21q-22 -127 -124.5 -200t-252.5 -73z" />
    <glyph glyph-name="ebreve" unicode="&#x115;" horiz-adv-x="911" 
d="M297 -20q-147 0 -239 82t-92 208q0 34 8 76l101 468q42 194 163.5 297.5t321.5 103.5q316 0 316 -275q0 -48 -18 -136l-61 -290h-486l-38 -183q-3 -14 -3 -26q0 -34 24 -56t64 -22q42 0 78 30.5t45 73.5l12 60h278l-10 -45q-38 -163 -162 -264.5t-302 -101.5zM594 862
q7 35 7 54q0 79 -82 79q-61 0 -91 -36t-44 -104l-36 -166h208zM580 1345q-130 0 -198 54.5t-68 156.5q0 29 5 62l4 20h223q-5 -23 -5 -39q0 -77 77 -77q96 0 119 116h224l-4 -20q-22 -127 -124.5 -200t-252.5 -73z" />
    <glyph glyph-name="Edotaccent" unicode="&#x116;" horiz-adv-x="855" 
d="M696 259l-56 -259h-719l328 1536h719l-57 -261h-421l-72 -335h357l-53 -256h-357l-90 -425h421zM638 1669q-67 0 -105 32.5t-38 88.5q0 82 58.5 146t154.5 64q68 0 106 -33.5t38 -92.5q0 -81 -59.5 -143t-154.5 -62z" />
    <glyph glyph-name="edotaccent" unicode="&#x117;" horiz-adv-x="911" 
d="M297 -20q-147 0 -239 82t-92 208q0 34 8 76l101 468q42 194 163.5 297.5t321.5 103.5q316 0 316 -275q0 -48 -18 -136l-61 -290h-486l-38 -183q-3 -14 -3 -26q0 -34 24 -56t64 -22q42 0 78 30.5t45 73.5l12 60h278l-10 -45q-38 -163 -162 -264.5t-302 -101.5zM594 862
q7 35 7 54q0 79 -82 79q-61 0 -91 -36t-44 -104l-36 -166h208zM596 1328q-67 0 -105.5 32.5t-38.5 88.5q0 82 59 146t155 64q67 0 105 -33.5t38 -92.5q0 -81 -59 -143t-154 -62z" />
    <glyph glyph-name="Eogonek" unicode="&#x118;" horiz-adv-x="855" 
d="M696 259l-56 -259h-96q-94 -55 -126 -80t-32 -51q0 -31 70 -31h58l-43 -202h-114q-103 0 -161.5 39t-58.5 96q0 64 46.5 124t120.5 105h-383l328 1536h719l-57 -261h-421l-72 -335h357l-53 -256h-357l-90 -425h421z" />
    <glyph glyph-name="eogonek" unicode="&#x119;" horiz-adv-x="911" 
d="M594 862q7 35 7 54q0 79 -82 79q-61 0 -91 -36t-44 -104l-36 -166h208zM227 -364q-103 0 -161.5 39t-58.5 96q0 64 45.5 123t119.5 104q-96 31 -151 103.5t-55 168.5q0 34 8 76l101 468q42 194 163.5 297.5t321.5 103.5q316 0 316 -275q0 -48 -18 -136l-61 -290h-486
l-38 -183q-3 -14 -3 -26q0 -34 24 -56t64 -22q42 0 78 30.5t45 73.5l12 60h278l-10 -45q-33 -139 -129 -235t-236 -123q-79 -45 -109.5 -70t-30.5 -49q0 -31 70 -31h58l-43 -202h-114z" />
    <glyph glyph-name="Ecaron" unicode="&#x11a;" horiz-adv-x="855" 
d="M696 259l-56 -259h-719l328 1536h719l-57 -261h-421l-72 -335h357l-53 -256h-357l-90 -425h421zM739 1688h-283l-188 292h285l78 -132l134 132h285z" />
    <glyph glyph-name="ecaron" unicode="&#x11b;" horiz-adv-x="911" 
d="M297 -20q-147 0 -239 82t-92 208q0 34 8 76l101 468q42 194 163.5 297.5t321.5 103.5q316 0 316 -275q0 -48 -18 -136l-61 -290h-486l-38 -183q-3 -14 -3 -26q0 -34 24 -56t64 -22q42 0 78 30.5t45 73.5l12 60h278l-10 -45q-38 -163 -162 -264.5t-302 -101.5zM594 862
q7 35 7 54q0 79 -82 79q-61 0 -91 -36t-44 -104l-36 -166h208zM696 1347h-283l-188 291h285l79 -131l133 131h285z" />
    <glyph glyph-name="Gcircumflex" unicode="&#x11c;" horiz-adv-x="1054" 
d="M358 -26q-178 0 -278 100t-100 257q0 62 11 108l137 655q41 195 206 331.5t359 136.5q164 0 268 -105.5t104 -268.5q0 -48 -10 -94l-24 -121h-299l33 159q3 14 3 34q0 56 -35.5 91t-95.5 35q-70 0 -126.5 -50.5t-71.5 -118.5l-152 -725q-4 -20 -4 -36q0 -52 37 -88.5
t95 -36.5q90 0 172 55l56 271h-191l57 265h489l-128 -611q-2 -10 -22.5 -35.5t-64.5 -61.5t-101 -68t-143.5 -55t-180.5 -23zM778 1819l-133 -131h-285l311 292h283l188 -292h-285z" />
    <glyph glyph-name="gcircumflex" unicode="&#x11d;" horiz-adv-x="923" 
d="M671 -102q-33 -158 -163 -260t-303 -102q-148 0 -231 78t-83 205q0 36 8 79l9 42h271l-12 -58q-3 -10 -3 -24q0 -33 23 -54.5t59 -21.5q44 0 80.5 28.5t45.5 71.5l53 253q-34 -62 -98.5 -103.5t-140.5 -41.5q-229 0 -229 234q0 52 23 167l107 502q19 86 77.5 159.5
t141 115.5t168.5 42q77 0 132.5 -38t72.5 -112l29 135h237zM266 338q-3 -11 -3 -26q0 -31 23.5 -53.5t58.5 -22.5q41 0 77.5 31t45.5 71l112 527q4 14 4 24q0 34 -23.5 55.5t-60.5 21.5q-41 0 -76.5 -30t-44.5 -71zM616 1478l-133 -131h-285l311 291h283l188 -291h-285z" />
    <glyph glyph-name="Gbreve" unicode="&#x11e;" horiz-adv-x="1054" 
d="M358 -26q-178 0 -278 100t-100 257q0 62 11 108l137 655q41 195 206 331.5t359 136.5q164 0 268 -105.5t104 -268.5q0 -48 -10 -94l-24 -121h-299l33 159q3 14 3 34q0 56 -35.5 91t-95.5 35q-70 0 -126.5 -50.5t-71.5 -118.5l-152 -725q-4 -20 -4 -36q0 -52 37 -88.5
t95 -36.5q90 0 172 55l56 271h-191l57 265h489l-128 -611q-2 -10 -22.5 -35.5t-64.5 -61.5t-101 -68t-143.5 -55t-180.5 -23zM715 1686q-130 0 -198 55t-68 157q0 28 5 61l3 21h224q-5 -23 -5 -40q0 -76 77 -76q96 0 119 116h224l-4 -21q-22 -127 -124.5 -200t-252.5 -73z
" />
    <glyph glyph-name="gbreve" unicode="&#x11f;" horiz-adv-x="923" 
d="M671 -102q-33 -158 -163 -260t-303 -102q-148 0 -231 78t-83 205q0 36 8 79l9 42h271l-12 -58q-3 -10 -3 -24q0 -33 23 -54.5t59 -21.5q44 0 80.5 28.5t45.5 71.5l53 253q-34 -62 -98.5 -103.5t-140.5 -41.5q-229 0 -229 234q0 52 23 167l107 502q19 86 77.5 159.5
t141 115.5t168.5 42q77 0 132.5 -38t72.5 -112l29 135h237zM266 338q-3 -11 -3 -26q0 -31 23.5 -53.5t58.5 -22.5q41 0 77.5 31t45.5 71l112 527q4 14 4 24q0 34 -23.5 55.5t-60.5 21.5q-41 0 -76.5 -30t-44.5 -71zM553 1345q-130 0 -198 54.5t-68 156.5q0 29 5 62l3 20h224
q-5 -23 -5 -39q0 -77 77 -77q96 0 119 116h224l-4 -20q-22 -127 -124.5 -200t-252.5 -73z" />
    <glyph glyph-name="Gdotaccent" unicode="&#x120;" horiz-adv-x="1054" 
d="M358 -26q-178 0 -278 100t-100 257q0 62 11 108l137 655q41 195 206 331.5t359 136.5q164 0 268 -105.5t104 -268.5q0 -48 -10 -94l-24 -121h-299l33 159q3 14 3 34q0 56 -35.5 91t-95.5 35q-70 0 -126.5 -50.5t-71.5 -118.5l-152 -725q-4 -20 -4 -36q0 -52 37 -88.5
t95 -36.5q90 0 172 55l56 271h-191l57 265h489l-128 -611q-2 -10 -22.5 -35.5t-64.5 -61.5t-101 -68t-143.5 -55t-180.5 -23zM730 1669q-67 0 -105 32.5t-38 88.5q0 82 58.5 146t154.5 64q68 0 106 -33.5t38 -92.5q0 -81 -59.5 -143t-154.5 -62z" />
    <glyph glyph-name="gdotaccent" unicode="&#x121;" horiz-adv-x="923" 
d="M671 -102q-33 -158 -163 -260t-303 -102q-148 0 -231 78t-83 205q0 36 8 79l9 42h271l-12 -58q-3 -10 -3 -24q0 -33 23 -54.5t59 -21.5q44 0 80.5 28.5t45.5 71.5l53 253q-34 -62 -98.5 -103.5t-140.5 -41.5q-229 0 -229 234q0 52 23 167l107 502q19 86 77.5 159.5
t141 115.5t168.5 42q77 0 132.5 -38t72.5 -112l29 135h237zM266 338q-3 -11 -3 -26q0 -31 23.5 -53.5t58.5 -22.5q41 0 77.5 31t45.5 71l112 527q4 14 4 24q0 34 -23.5 55.5t-60.5 21.5q-41 0 -76.5 -30t-44.5 -71zM568 1328q-67 0 -105 32.5t-38 88.5q0 82 58.5 146
t154.5 64q68 0 106 -33.5t38 -92.5q0 -81 -59.5 -143t-154.5 -62z" />
    <glyph glyph-name="uni0122" unicode="&#x122;" horiz-adv-x="1054" 
d="M358 -26q-178 0 -278 100t-100 257q0 62 11 108l137 655q41 195 206 331.5t359 136.5q164 0 268 -105.5t104 -268.5q0 -48 -10 -94l-24 -121h-299l33 159q3 14 3 34q0 56 -35.5 91t-95.5 35q-70 0 -126.5 -50.5t-71.5 -118.5l-152 -725q-4 -20 -4 -36q0 -52 37 -88.5
t95 -36.5q90 0 172 55l56 271h-191l57 265h489l-128 -611q-2 -10 -22.5 -35.5t-64.5 -61.5t-101 -68t-143.5 -55t-180.5 -23zM497 -133l-200 -326h-222l138 326h284z" />
    <glyph glyph-name="uni0123" unicode="&#x123;" horiz-adv-x="923" 
d="M671 -102q-33 -158 -163 -260t-303 -102q-148 0 -231 78t-83 205q0 36 8 79l9 42h271l-12 -58q-3 -10 -3 -24q0 -33 23 -54.5t59 -21.5q44 0 80.5 28.5t45.5 71.5l53 253q-34 -62 -98.5 -103.5t-140.5 -41.5q-229 0 -229 234q0 52 23 167l107 502q19 86 77.5 159.5
t141 115.5t168.5 42q77 0 132.5 -38t72.5 -112l29 135h237zM266 338q-3 -11 -3 -26q0 -31 23.5 -53.5t58.5 -22.5q41 0 77.5 31t45.5 71l112 527q4 14 4 24q0 34 -23.5 55.5t-60.5 21.5q-41 0 -76.5 -30t-44.5 -71zM415 1312l199 326h222l-138 -326h-283z" />
    <glyph glyph-name="Hcircumflex" unicode="&#x124;" horiz-adv-x="1027" 
d="M1106 1536l-328 -1536h-297l135 628h-258l-134 -628h-303l328 1536h302l-136 -643h257l137 643h297zM749 1819l-133 -131h-285l311 292h283l188 -292h-285z" />
    <glyph glyph-name="hcircumflex" unicode="&#x125;" horiz-adv-x="945" 
d="M732 1225q198 0 198 -206q0 -51 -17 -126l-191 -893h-300l184 865q3 11 3 24q0 36 -23 58t-60 22q-42 0 -78 -30.5t-45 -73.5l-185 -865h-297l328 1536h304l-101 -474q14 26 35 51t55 52t83.5 43.5t106.5 16.5zM527 1833l-133 -131h-285l311 291h283l188 -291h-285z" />
    <glyph glyph-name="Hbar" unicode="&#x126;" horiz-adv-x="1423" 
d="M1242 1007l-215 -1007h-297l120 560h-297l-120 -560h-296l215 1007h-120l43 205h119l70 324h297l-70 -324h297l70 324h297l-70 -324h120l-43 -205h-120zM908 835l37 172h-296l-38 -172h297z" />
    <glyph glyph-name="hbar" unicode="&#x127;" horiz-adv-x="945" 
d="M135 1435h92l27 128h304l-27 -128h129l-35 -170h-130l-43 -203q14 26 35 51t55 52t83.5 43.5t106.5 16.5q103 0 150.5 -55t47.5 -148q0 -54 -17 -129l-191 -893h-300l186 869q1 4 1 18q0 35 -23.5 58.5t-59.5 23.5q-42 0 -78 -30.5t-45 -73.5l-185 -865h-297l270 1265
h-92z" />
    <glyph glyph-name="Itilde" unicode="&#x128;" horiz-adv-x="467" 
d="M546 1536l-328 -1536h-297l328 1536h297zM548 1691q-70 0 -140 46q-46 29 -72 29q-22 0 -35.5 -16t-20.5 -55h-207q61 288 248 288q69 0 140 -46q46 -29 71 -29q22 0 36 16.5t21 55.5h206q-61 -289 -247 -289z" />
    <glyph glyph-name="itilde" unicode="&#x129;" horiz-adv-x="488" 
d="M406 853l-182 -853h-287l182 853h287zM401 1062q-70 0 -140 46q-46 29 -72 29q-22 0 -35.5 -16.5t-20.5 -55.5h-206q61 288 247 288q69 0 140 -46q46 -29 72 -29q22 0 35.5 16.5t20.5 55.5h207q-61 -288 -248 -288z" />
    <glyph glyph-name="Imacron" unicode="&#x12a;" horiz-adv-x="467" 
d="M546 1536l-328 -1536h-297l328 1536h297zM765 1980l-48 -222h-591l48 222h591z" />
    <glyph glyph-name="imacron" unicode="&#x12b;" horiz-adv-x="488" 
d="M406 853l-182 -853h-287l182 853h287zM618 1350l-48 -222h-590l47 222h591z" />
    <glyph glyph-name="Ibreve" unicode="&#x12c;" horiz-adv-x="467" 
d="M546 1536l-328 -1536h-297l328 1536h297zM423 1686q-130 0 -198 55t-68 157q0 28 5 61l4 21h223q-5 -23 -5 -40q0 -76 77 -76q96 0 119 116h224l-4 -21q-22 -127 -124.5 -200t-252.5 -73z" />
    <glyph glyph-name="ibreve" unicode="&#x12d;" horiz-adv-x="488" 
d="M406 853l-182 -853h-287l182 853h287zM276 1056q-130 0 -198 55t-68 157q0 28 5 61l4 21h223q-5 -23 -5 -39q0 -77 77 -77q96 0 119 116h224l-3 -21q-22 -127 -125 -200t-253 -73z" />
    <glyph glyph-name="Iogonek" unicode="&#x12e;" horiz-adv-x="467" 
d="M546 1536l-328 -1536h-25q-95 -56 -127 -80.5t-32 -50.5q0 -31 70 -31h58l-43 -202h-114q-103 0 -161.5 39t-58.5 96q0 64 46.5 124t120.5 105h-31l328 1536h297z" />
    <glyph glyph-name="iogonek" unicode="&#x12f;" horiz-adv-x="488" 
d="M406 853l-182 -853h-33q-95 -56 -127 -80.5t-32 -50.5q0 -31 70 -31h58l-42 -202h-115q-103 0 -161.5 39t-58.5 96q0 64 47 124t121 105h-14l182 853h287zM292 1039q-67 0 -105.5 33t-38.5 89q0 82 59 145.5t155 63.5q67 0 105 -33.5t38 -92.5q0 -81 -59 -143t-154 -62z
" />
    <glyph glyph-name="Idotaccent" unicode="&#x130;" horiz-adv-x="467" 
d="M546 1536l-328 -1536h-297l328 1536h297zM439 1669q-67 0 -105.5 32.5t-38.5 88.5q0 82 59 146t155 64q67 0 105 -33.5t38 -92.5q0 -81 -59 -143t-154 -62z" />
    <glyph glyph-name="dotlessi" unicode="&#x131;" horiz-adv-x="488" 
d="M406 853l-182 -853h-287l182 853h287z" />
    <glyph glyph-name="Jcircumflex" unicode="&#x134;" horiz-adv-x="704" 
d="M79 -26q-132 0 -233 52l98 278q95 -62 160 -62q109 0 143 157l238 1137h298l-242 -1161q-37 -180 -164 -290.5t-298 -110.5zM712 1819l-133 -131h-285l310 292h283l188 -292h-285z" />
    <glyph glyph-name="jcircumflex" unicode="&#x135;" horiz-adv-x="486" 
d="M200 -7q-32 -151 -159.5 -257t-274.5 -106q-99 0 -126 8l51 236h89q41 0 77.5 31t45.5 73l257 1217h296zM372 1478l-133 -131h-285l311 291h283l188 -291h-285z" />
    <glyph glyph-name="uni0136" unicode="&#x136;" horiz-adv-x="996" 
d="M447 567l-188 -296l-44 -271h-294l328 1536h294l-161 -739l441 739h332l-466 -708l130 -828h-322zM488 -133l-200 -326h-221l138 326h283z" />
    <glyph glyph-name="uni0137" unicode="&#x137;" horiz-adv-x="954" 
d="M642 635l87 -635h-318l-29 265l-148 -210l-12 -55h-301l328 1536h301l-205 -959l385 618h306zM611 -133l-200 -326h-222l139 326h283z" />
    <glyph glyph-name="Lacute" unicode="&#x139;" horiz-adv-x="863" 
d="M-79 0l328 1536h301l-272 -1275h444l-56 -261h-745zM896 1980l-312 -292h-275l254 292h333z" />
    <glyph glyph-name="lacute" unicode="&#x13a;" horiz-adv-x="457" 
d="M249 1536h287l-328 -1536h-287zM858 1935l-312 -291h-275l255 291h332z" />
    <glyph glyph-name="uni013B" unicode="&#x13b;" horiz-adv-x="863" 
d="M-79 0l328 1536h301l-272 -1275h444l-56 -261h-745zM565 -133l-200 -326h-222l139 326h283z" />
    <glyph glyph-name="uni013C" unicode="&#x13c;" horiz-adv-x="457" 
d="M249 1536h287l-328 -1536h-287zM183 -133l-200 -326h-222l138 326h284z" />
    <glyph glyph-name="Lcaron" unicode="&#x13d;" horiz-adv-x="863" 
d="M-79 0l328 1536h301l-272 -1275h444l-56 -261h-745zM980 1536l-140 -367h-219l79 367h280z" />
    <glyph glyph-name="lcaron" unicode="&#x13e;" horiz-adv-x="457" 
d="M249 1536h287l-328 -1536h-287zM973 1536l-140 -367h-219l79 367h280z" />
    <glyph glyph-name="Ldot" unicode="&#x13f;" horiz-adv-x="948" 
d="M679 777q-69 0 -108.5 36t-39.5 98q0 91 64 161t163 70q70 0 109 -36.5t39 -100.5q0 -87 -64.5 -157.5t-162.5 -70.5zM249 1536h301l-272 -1275h444l-56 -261h-745z" />
    <glyph glyph-name="ldot" unicode="&#x140;" horiz-adv-x="472" 
d="M256 1536h287l-328 -1536h-287zM490 705q0 68 54.5 121t124.5 53q51 0 82.5 -33t31.5 -77t-25 -88q-25 -39 -65.5 -64t-84.5 -25q-53 0 -85.5 32.5t-32.5 80.5z" />
    <glyph glyph-name="Lslash" unicode="&#x141;" horiz-adv-x="1102" 
d="M985 1328l-427 -471l-126 -596h444l-57 -261h-744l91 422l-11 -11h-227l308 340l167 785h300l-75 -352l130 144h227z" />
    <glyph glyph-name="lslash" unicode="&#x142;" horiz-adv-x="648" 
d="M285 0h-287l118 550l-165 -81l51 243l165 80l157 742h287l-123 -585l191 94l-51 -243l-193 -93z" />
    <glyph glyph-name="Nacute" unicode="&#x143;" horiz-adv-x="1087" 
d="M-79 0l328 1536h393l-17 -1137l242 1137h299l-328 -1536h-387l8 1152l-246 -1152h-292zM1200 1980l-313 -292h-274l254 292h333z" />
    <glyph glyph-name="nacute" unicode="&#x144;" horiz-adv-x="945" 
d="M722 1220q198 0 198 -215q0 -60 -15 -126l-188 -879h-304l183 853q1 3 1 19q0 35 -23 58.5t-60 23.5q-41 0 -76.5 -30t-44.5 -71l-183 -853h-302l254 1195h309l-31 -145q14 27 35 53t55 54t84 45.5t108 17.5zM1056 1638l-312 -291h-275l255 291h332z" />
    <glyph glyph-name="uni0145" unicode="&#x145;" horiz-adv-x="1087" 
d="M-79 0l328 1536h393l-17 -1137l242 1137h299l-328 -1536h-387l8 1152l-246 -1152h-292zM678 -133l-200 -326h-222l138 326h284z" />
    <glyph glyph-name="uni0146" unicode="&#x146;" horiz-adv-x="945" 
d="M722 1220q198 0 198 -215q0 -60 -15 -126l-188 -879h-304l183 853q1 3 1 19q0 35 -23 58.5t-60 23.5q-41 0 -76.5 -30t-44.5 -71l-183 -853h-302l254 1195h309l-31 -145q14 27 35 53t55 54t84 45.5t108 17.5zM432 -133l-200 -326h-222l138 326h284z" />
    <glyph glyph-name="Ncaron" unicode="&#x147;" horiz-adv-x="1087" 
d="M-79 0l328 1536h393l-17 -1137l242 1137h299l-328 -1536h-387l8 1152l-246 -1152h-292zM884 1688h-283l-188 292h285l79 -132l133 132h285z" />
    <glyph glyph-name="ncaron" unicode="&#x148;" horiz-adv-x="945" 
d="M722 1220q198 0 198 -215q0 -60 -15 -126l-188 -879h-304l183 853q1 3 1 19q0 35 -23 58.5t-60 23.5q-41 0 -76.5 -30t-44.5 -71l-183 -853h-302l254 1195h309l-31 -145q14 27 35 53t55 54t84 45.5t108 17.5zM741 1347h-284l-187 291h285l78 -131l133 131h285z" />
    <glyph glyph-name="Eng" unicode="&#x14a;" horiz-adv-x="1087" 
d="M413 -321h-169l55 253h102q68 0 85 53l6 15h-41l8 1152l-246 -1152h-292l328 1536h393l-17 -1137l242 1137h299l-328 -1536h-58q-36 -167 -126.5 -244t-240.5 -77z" />
    <glyph glyph-name="eng" unicode="&#x14b;" horiz-adv-x="945" 
d="M713 -72q-25 -120 -122 -186t-241 -66h-169l53 252h102q74 0 87 53l186 872q2 7 2 21q0 34 -23.5 57t-60.5 23q-41 0 -76.5 -30t-44.5 -71l-182 -853h-303l255 1195h309l-31 -145q14 26 35 51.5t55 53t84 44t108 16.5q198 0 198 -210q0 -62 -16 -126z" />
    <glyph glyph-name="Omacron" unicode="&#x14c;" horiz-adv-x="1044" 
d="M691 1562q167 0 271.5 -104t104.5 -262q0 -98 -152 -764q-54 -236 -191.5 -347t-368.5 -111q-165 0 -270 103.5t-105 260.5q0 22 52.5 287.5t97.5 471.5q32 146 117.5 253.5t200 159.5t243.5 52zM285 358q0 -55 34.5 -89.5t91.5 -34.5q67 0 124 45.5t73 114.5
q29 122 94.5 439.5t65.5 332.5q0 56 -36.5 93.5t-94.5 37.5q-66 0 -122 -48t-70 -114q-20 -88 -59.5 -277t-70 -341.5t-30.5 -158.5zM1043 1980l-48 -222h-591l48 222h591z" />
    <glyph glyph-name="omacron" unicode="&#x14d;" horiz-adv-x="904" 
d="M551 1220q319 0 319 -271q0 -63 -15 -137l-106 -496q-33 -155 -157 -248.5t-300 -93.5q-155 0 -243 77.5t-88 204.5q0 51 8 84l103 481q42 199 163 299t316 100zM268 326q-3 -14 -3 -27q0 -36 23.5 -57.5t63.5 -21.5q42 0 77 30.5t44 75.5l111 526q7 34 7 63
q0 37 -18.5 56t-62.5 19q-60 0 -88.5 -36t-42.5 -107zM913 1638l-48 -221h-590l48 221h590z" />
    <glyph glyph-name="Obreve" unicode="&#x14e;" horiz-adv-x="1044" 
d="M691 1562q167 0 271.5 -104t104.5 -262q0 -98 -152 -764q-54 -236 -191.5 -347t-368.5 -111q-165 0 -270 103.5t-105 260.5q0 22 52.5 287.5t97.5 471.5q32 146 117.5 253.5t200 159.5t243.5 52zM285 358q0 -55 34.5 -89.5t91.5 -34.5q67 0 124 45.5t73 114.5
q29 122 94.5 439.5t65.5 332.5q0 56 -36.5 93.5t-94.5 37.5q-66 0 -122 -48t-70 -114q-20 -88 -59.5 -277t-70 -341.5t-30.5 -158.5zM701 1686q-130 0 -198 55t-68 157q0 28 5 61l4 21h223q-5 -23 -5 -40q0 -76 77 -76q96 0 119 116h224l-3 -21q-22 -127 -125 -200t-253 -73
z" />
    <glyph glyph-name="obreve" unicode="&#x14f;" horiz-adv-x="904" 
d="M551 1220q319 0 319 -271q0 -63 -15 -137l-106 -496q-33 -155 -157 -248.5t-300 -93.5q-155 0 -243 77.5t-88 204.5q0 51 8 84l103 481q42 199 163 299t316 100zM268 326q-3 -14 -3 -27q0 -36 23.5 -57.5t63.5 -21.5q42 0 77 30.5t44 75.5l111 526q7 34 7 63
q0 37 -18.5 56t-62.5 19q-60 0 -88.5 -36t-42.5 -107zM572 1345q-130 0 -198.5 54.5t-68.5 156.5q0 22 6 62l3 20h224q-6 -28 -6 -39q0 -77 77 -77q97 0 120 116h223l-3 -20q-22 -127 -124.5 -200t-252.5 -73z" />
    <glyph glyph-name="Ohungarumlaut" unicode="&#x150;" horiz-adv-x="1044" 
d="M691 1562q167 0 271.5 -104t104.5 -262q0 -98 -152 -764q-54 -236 -191.5 -347t-368.5 -111q-165 0 -270 103.5t-105 260.5q0 22 52.5 287.5t97.5 471.5q32 146 117.5 253.5t200 159.5t243.5 52zM285 358q0 -55 34.5 -89.5t91.5 -34.5q67 0 124 45.5t73 114.5
q29 122 94.5 439.5t65.5 332.5q0 56 -36.5 93.5t-94.5 37.5q-66 0 -122 -48t-70 -114q-20 -88 -59.5 -277t-70 -341.5t-30.5 -158.5zM870 1980l-259 -292h-276l252 292h283zM975 1980h283l-260 -292h-276z" />
    <glyph glyph-name="ohungarumlaut" unicode="&#x151;" horiz-adv-x="904" 
d="M551 1220q319 0 319 -271q0 -63 -15 -137l-106 -496q-33 -155 -157 -248.5t-300 -93.5q-155 0 -243 77.5t-88 204.5q0 51 8 84l103 481q42 199 163 299t316 100zM268 326q-3 -14 -3 -27q0 -36 23.5 -57.5t63.5 -21.5q42 0 77 30.5t44 75.5l111 526q7 34 7 63
q0 37 -18.5 56t-62.5 19q-60 0 -88.5 -36t-42.5 -107zM741 1638l-260 -291h-276l252 291h284zM845 1638h283l-259 -291h-277z" />
    <glyph glyph-name="OE" unicode="&#x152;" horiz-adv-x="1921" 
d="M1405 259l-57 -259h-860q-164 0 -256 100t-92 260q0 59 14 126l119 564q45 207 195.5 346.5t347.5 139.5h860l-56 -261h-422l-82 -384h357l-55 -256h-356l-79 -376h422zM447 447q-3 -15 -3 -34q0 -60 42 -106t106 -46h91l215 1014h-91q-75 0 -140.5 -55t-82.5 -131z" />
    <glyph glyph-name="oe" unicode="&#x153;" horiz-adv-x="1406" 
d="M551 1219q157 0 237 -65q107 61 267 61q314 0 314 -275q0 -58 -16 -136l-61 -290h-486l-38 -183q-2 -9 -2 -24q0 -35 23.5 -57.5t63.5 -22.5q42 0 78 30.5t45 73.5l12 60h278l-10 -45q-38 -163 -162 -264.5t-302 -101.5q-135 0 -225 71q-117 -75 -275 -75q-155 0 -243 76
t-88 202q0 53 8 86l103 481q85 398 479 398zM268 326q-2 -9 -2 -26q0 -33 23.5 -55.5t62.5 -22.5q36 0 70 20t41 53l124 598q4 20 4 29q0 66 -81 66q-60 0 -88.5 -35.5t-42.5 -105.5zM1089 862q8 32 8 54q0 79 -83 79q-61 0 -91 -36t-44 -104l-36 -166h208z" />
    <glyph glyph-name="Racute" unicode="&#x154;" horiz-adv-x="1024" 
d="M-79 0l328 1536h411q155 0 254.5 -96.5t99.5 -243.5q0 -149 -80 -272t-209 -192l169 -732h-315l-149 669h-70l-143 -669h-296zM492 925q89 0 152.5 64t63.5 153q0 60 -40 99t-101 39h-77l-75 -355h77zM1041 1980l-312 -292h-275l254 292h333z" />
    <glyph glyph-name="racute" unicode="&#x155;" horiz-adv-x="660" 
d="M375 1072q50 71 156 107t203 36l-58 -268q-102 0 -186 -39.5t-99 -113.5l-169 -794h-301l255 1195h225zM891 1638l-312 -291h-275l254 291h333z" />
    <glyph glyph-name="uni0156" unicode="&#x156;" horiz-adv-x="1024" 
d="M-79 0l328 1536h411q155 0 254.5 -96.5t99.5 -243.5q0 -149 -80 -272t-209 -192l169 -732h-315l-149 669h-70l-143 -669h-296zM492 925q89 0 152.5 64t63.5 153q0 60 -40 99t-101 39h-77l-75 -355h77zM645 -133l-200 -326h-221l138 326h283z" />
    <glyph glyph-name="uni0157" unicode="&#x157;" horiz-adv-x="660" 
d="M375 1072q50 71 156 107t203 36l-58 -268q-102 0 -186 -39.5t-99 -113.5l-169 -794h-301l255 1195h225zM177 -133l-199 -326h-222l138 326h283z" />
    <glyph glyph-name="Rcaron" unicode="&#x158;" horiz-adv-x="1024" 
d="M-79 0l328 1536h411q155 0 254.5 -96.5t99.5 -243.5q0 -149 -80 -272t-209 -192l169 -732h-315l-149 669h-70l-143 -669h-296zM492 925q89 0 152.5 64t63.5 153q0 60 -40 99t-101 39h-77l-75 -355h77zM725 1688h-283l-188 292h285l79 -132l133 132h285z" />
    <glyph glyph-name="rcaron" unicode="&#x159;" horiz-adv-x="660" 
d="M375 1072q50 71 156 107t203 36l-58 -268q-102 0 -186 -39.5t-99 -113.5l-169 -794h-301l255 1195h225zM575 1347h-283l-188 291h285l79 -131l133 131h285z" />
    <glyph glyph-name="Sacute" unicode="&#x15a;" horiz-adv-x="882" 
d="M273 -26q-148 0 -237 90.5t-89 237.5q0 51 10 102l11 50h264l-10 -50q-4 -24 -4 -40q0 -122 113 -122q49 0 87 21t59 55t31.5 72.5t10.5 77.5q0 53 -34 90t-98 73q-37 21 -66 40.5t-73 59t-73.5 81.5t-51.5 104t-22 130q0 102 35 195t98.5 164.5t160 114t211.5 42.5
q153 0 235 -88.5t82 -249.5q0 -74 -17 -152h-266q14 64 14 106q0 62 -24.5 89.5t-79.5 27.5q-47 0 -84 -20.5t-56.5 -51.5t-29.5 -62.5t-10 -59.5q0 -119 162 -214q127 -76 191.5 -161t64.5 -209q0 -148 -66 -272.5t-185 -197.5t-264 -73zM1050 1980l-313 -292h-274l254 292
h333z" />
    <glyph glyph-name="sacute" unicode="&#x15b;" horiz-adv-x="762" 
d="M213 -24q-121 0 -194.5 73.5t-73.5 189.5q0 51 19 121h265q-11 -42 -11 -61q0 -57 53 -57q34 0 55.5 24t28.5 51.5t7 56.5q0 62 -75 92q-113 47 -167.5 121t-54.5 191q0 77 28.5 154t79 140.5t129.5 103t172 39.5q121 0 189.5 -69.5t68.5 -193.5q0 -64 -13 -126h-265
q10 41 10 73q0 52 -46 52q-83 0 -83 -118q0 -39 30.5 -68t98.5 -65q79 -41 124 -98.5t45 -154.5q0 -81 -26.5 -162t-76 -151t-132.5 -114t-185 -44zM930 1638l-312 -291h-275l254 291h333z" />
    <glyph glyph-name="Scircumflex" unicode="&#x15c;" horiz-adv-x="882" 
d="M273 -26q-148 0 -237 90.5t-89 237.5q0 51 10 102l11 50h264l-10 -50q-4 -24 -4 -40q0 -122 113 -122q49 0 87 21t59 55t31.5 72.5t10.5 77.5q0 53 -34 90t-98 73q-37 21 -66 40.5t-73 59t-73.5 81.5t-51.5 104t-22 130q0 102 35 195t98.5 164.5t160 114t211.5 42.5
q153 0 235 -88.5t82 -249.5q0 -74 -17 -152h-266q14 64 14 106q0 62 -24.5 89.5t-79.5 27.5q-47 0 -84 -20.5t-56.5 -51.5t-29.5 -62.5t-10 -59.5q0 -119 162 -214q127 -76 191.5 -161t64.5 -209q0 -148 -66 -272.5t-185 -197.5t-264 -73zM681 1819l-133 -131h-285l310 292
h284l187 -292h-285z" />
    <glyph glyph-name="scircumflex" unicode="&#x15d;" horiz-adv-x="762" 
d="M213 -24q-121 0 -194.5 73.5t-73.5 189.5q0 51 19 121h265q-11 -42 -11 -61q0 -57 53 -57q34 0 55.5 24t28.5 51.5t7 56.5q0 62 -75 92q-113 47 -167.5 121t-54.5 191q0 77 28.5 154t79 140.5t129.5 103t172 39.5q121 0 189.5 -69.5t68.5 -193.5q0 -64 -13 -126h-265
q10 41 10 73q0 52 -46 52q-83 0 -83 -118q0 -39 30.5 -68t98.5 -65q79 -41 124 -98.5t45 -154.5q0 -81 -26.5 -162t-76 -151t-132.5 -114t-185 -44zM561 1478l-133 -131h-285l311 291h283l188 -291h-285z" />
    <glyph glyph-name="Scedilla" unicode="&#x15e;" horiz-adv-x="882" 
d="M-53 302q0 51 10 102l11 50h264l-10 -50q-4 -24 -4 -40q0 -122 113 -122q49 0 87 21t59 55t31.5 72.5t10.5 77.5q0 53 -34 90t-98 73q-37 21 -66 40.5t-73 59t-73.5 81.5t-51.5 104t-22 130q0 102 35 195t98.5 164.5t160 114t211.5 42.5q153 0 235 -88.5t82 -249.5
q0 -74 -17 -152h-266q14 64 14 106q0 62 -24.5 89.5t-79.5 27.5q-47 0 -84 -20.5t-56.5 -51.5t-29.5 -62.5t-10 -59.5q0 -119 162 -214q127 -76 191.5 -161t64.5 -209q0 -222 -143 -379t-357 -164l-20 -46q15 5 39 5q25 0 51.5 -6t56 -20.5t48 -45t18.5 -73.5
q0 -82 -59 -130.5t-156 -48.5q-104 0 -191 56l38 120q74 -55 141 -55q91 0 91 48q0 68 -226 68l52 142q-104 29 -164 112t-60 202z" />
    <glyph glyph-name="scedilla" unicode="&#x15f;" horiz-adv-x="762" 
d="M-55 239q0 51 19 121h265q-11 -42 -11 -61q0 -57 53 -57q34 0 55.5 24t28.5 51.5t7 56.5q0 62 -75 92q-113 47 -167.5 121t-54.5 191q0 77 28.5 154t79 140.5t129.5 103t172 39.5q121 0 189.5 -69.5t68.5 -193.5q0 -64 -13 -126h-265q10 41 10 73q0 52 -46 52
q-83 0 -83 -118q0 -39 30.5 -68t98.5 -65q79 -41 124 -98.5t45 -154.5q0 -64 -15.5 -128t-49 -125.5t-80.5 -109t-116 -77.5t-150 -31l-21 -48q15 5 40 5t51.5 -6t56 -20.5t48 -45t18.5 -73.5q0 -82 -59 -130.5t-156 -48.5q-104 0 -191 56l37 120q74 -55 142 -55q90 0 90 48
q0 68 -225 68l53 149q-75 27 -118 92t-43 152z" />
    <glyph glyph-name="Scaron" unicode="&#x160;" horiz-adv-x="882" 
d="M273 -26q-148 0 -237 90.5t-89 237.5q0 51 10 102l11 50h264l-10 -50q-4 -24 -4 -40q0 -122 113 -122q49 0 87 21t59 55t31.5 72.5t10.5 77.5q0 53 -34 90t-98 73q-37 21 -66 40.5t-73 59t-73.5 81.5t-51.5 104t-22 130q0 102 35 195t98.5 164.5t160 114t211.5 42.5
q153 0 235 -88.5t82 -249.5q0 -74 -17 -152h-266q14 64 14 106q0 62 -24.5 89.5t-79.5 27.5q-47 0 -84 -20.5t-56.5 -51.5t-29.5 -62.5t-10 -59.5q0 -119 162 -214q127 -76 191.5 -161t64.5 -209q0 -148 -66 -272.5t-185 -197.5t-264 -73zM734 1688h-283l-188 292h285
l78 -132l133 132h285z" />
    <glyph glyph-name="scaron" unicode="&#x161;" horiz-adv-x="762" 
d="M213 -24q-121 0 -194.5 73.5t-73.5 189.5q0 51 19 121h265q-11 -42 -11 -61q0 -57 53 -57q34 0 55.5 24t28.5 51.5t7 56.5q0 62 -75 92q-113 47 -167.5 121t-54.5 191q0 77 28.5 154t79 140.5t129.5 103t172 39.5q121 0 189.5 -69.5t68.5 -193.5q0 -64 -13 -126h-265
q10 41 10 73q0 52 -46 52q-83 0 -83 -118q0 -39 30.5 -68t98.5 -65q79 -41 124 -98.5t45 -154.5q0 -81 -26.5 -162t-76 -151t-132.5 -114t-185 -44zM614 1347h-283l-188 291h285l79 -131l133 131h285z" />
    <glyph glyph-name="uni0162" unicode="&#x162;" horiz-adv-x="887" 
d="M927 1273h-249l-272 -1273h-148l-33 -72q15 5 40 5t51.5 -6t56 -20.5t48 -45t18.5 -73.5q0 -82 -59 -130.5t-156 -48.5q-105 0 -192 56l38 120q74 -55 142 -55q90 0 90 48q0 68 -225 68l56 154h-25l271 1273h-254l56 263h802z" />
    <glyph glyph-name="uni0163" unicode="&#x163;" horiz-adv-x="727" 
d="M357 329q-4 -18 -4 -25q0 -20 16.5 -32.5t40.5 -12.5h167l-56 -259h-229l-33 -72q15 5 40 5t51.5 -6t56 -20.5t48 -45t18.5 -73.5q0 -82 -59 -130.5t-156 -48.5q-104 0 -191 56l37 120q74 -55 142 -55q90 0 90 48q0 68 -225 68l56 156h34q-76 9 -121.5 59.5t-45.5 126.5
q0 18 7 53l150 708h-142l53 246h142l46 216h297l-46 -216h193l-53 -246h-193z" />
    <glyph glyph-name="Tcaron" unicode="&#x164;" horiz-adv-x="887" 
d="M927 1273h-249l-272 -1273h-298l271 1273h-254l56 263h802zM707 1688h-284l-187 292h285l78 -132l133 132h285z" />
    <glyph glyph-name="tcaron" unicode="&#x165;" horiz-adv-x="727" 
d="M357 329q-4 -18 -4 -25q0 -20 16.5 -32.5t40.5 -12.5h167l-56 -259h-291q-87 0 -141.5 53t-54.5 135q0 18 7 53l150 708h-142l53 246h142l46 216h297l-46 -216h193l-53 -246h-193zM1091 1195l-140 -367h-219l79 367h280z" />
    <glyph glyph-name="Tbar" unicode="&#x166;" horiz-adv-x="1143" 
d="M500 957l67 316h-289l57 263h870l-56 -263h-284l-66 -316h198l-50 -227h-198l-155 -730h-299l156 730h-244l49 227h244z" />
    <glyph glyph-name="tbar" unicode="&#x167;" horiz-adv-x="766" 
d="M524 930l-32 -150h197l-54 -265h-198l-41 -189q-3 -13 -3 -29t14.5 -27t41.5 -11h167l-56 -259h-290q-85 0 -140 52.5t-55 133.5q0 23 5 55l60 274h-159l55 265h159l32 150h-159l57 265h158l46 216h297l-46 -216h193l-56 -265h-193z" />
    <glyph glyph-name="Utilde" unicode="&#x168;" horiz-adv-x="1022" 
d="M860 404q-37 -176 -189 -303t-328 -127q-151 0 -248 96.5t-97 243.5q0 41 11 90l240 1132h299l-248 -1167q-3 -13 -3 -29q0 -46 28 -73.5t74 -27.5q53 0 99.5 38t57.5 92l248 1167h297zM821 1691q-70 0 -140 46q-46 29 -72 29q-22 0 -35.5 -16t-20.5 -55h-207
q61 288 248 288q69 0 140 -46q46 -29 72 -29q22 0 35.5 16.5t20.5 55.5h206q-61 -289 -247 -289z" />
    <glyph glyph-name="utilde" unicode="&#x169;" horiz-adv-x="971" 
d="M164 -20q-103 0 -150.5 54.5t-47.5 149.5q0 63 15 132l186 879h304l-181 -854q-3 -11 -3 -24q0 -33 23.5 -54.5t59.5 -21.5q42 0 78 29.5t45 70.5l181 854h302l-254 -1195h-309l31 145q-18 -36 -48.5 -70t-93 -64.5t-138.5 -30.5zM725 1350q-70 0 -140 46q-46 29 -71 29
q-22 0 -36 -16.5t-21 -55.5h-206q61 289 247 289q69 0 140 -46q46 -29 72 -29q22 0 35.5 16t20.5 55h207q-61 -288 -248 -288z" />
    <glyph glyph-name="Umacron" unicode="&#x16a;" horiz-adv-x="1022" 
d="M860 404q-37 -176 -189 -303t-328 -127q-151 0 -248 96.5t-97 243.5q0 41 11 90l240 1132h299l-248 -1167q-3 -13 -3 -29q0 -46 28 -73.5t74 -27.5q53 0 99.5 38t57.5 92l248 1167h297zM1038 1980l-48 -222h-591l48 222h591z" />
    <glyph glyph-name="umacron" unicode="&#x16b;" horiz-adv-x="971" 
d="M164 -20q-103 0 -150.5 54.5t-47.5 149.5q0 63 15 132l186 879h304l-181 -854q-3 -11 -3 -24q0 -33 23.5 -54.5t59.5 -21.5q42 0 78 29.5t45 70.5l181 854h302l-254 -1195h-309l31 145q-18 -36 -48.5 -70t-93 -64.5t-138.5 -30.5zM942 1638l-48 -221h-590l48 221h590z
" />
    <glyph glyph-name="Ubreve" unicode="&#x16c;" horiz-adv-x="1022" 
d="M860 404q-37 -176 -189 -303t-328 -127q-151 0 -248 96.5t-97 243.5q0 41 11 90l240 1132h299l-248 -1167q-3 -13 -3 -29q0 -46 28 -73.5t74 -27.5q53 0 99.5 38t57.5 92l248 1167h297zM696 1686q-130 0 -198 55t-68 157q0 28 5 61l4 21h223q-5 -23 -5 -40q0 -76 77 -76
q96 0 119 116h224l-4 -21q-22 -127 -124.5 -200t-252.5 -73z" />
    <glyph glyph-name="ubreve" unicode="&#x16d;" horiz-adv-x="971" 
d="M164 -20q-103 0 -150.5 54.5t-47.5 149.5q0 63 15 132l186 879h304l-181 -854q-3 -11 -3 -24q0 -33 23.5 -54.5t59.5 -21.5q42 0 78 29.5t45 70.5l181 854h302l-254 -1195h-309l31 145q-18 -36 -48.5 -70t-93 -64.5t-138.5 -30.5zM601 1345q-130 0 -198 54.5t-68 156.5
q0 29 5 62l3 20h224q-6 -28 -6 -39q0 -77 77 -77q97 0 120 116h223l-3 -20q-22 -127 -124.5 -200t-252.5 -73z" />
    <glyph glyph-name="Uring" unicode="&#x16e;" horiz-adv-x="1022" 
d="M860 404q-37 -176 -189 -303t-328 -127q-151 0 -248 96.5t-97 243.5q0 41 11 90l240 1132h299l-248 -1167q-3 -13 -3 -29q0 -46 28 -73.5t74 -27.5q53 0 99.5 38t57.5 92l248 1167h297zM688 1649q-96 0 -155.5 54.5t-59.5 137.5q0 115 97 203.5t220 88.5q97 0 156 -56
t59 -142q0 -104 -95.5 -195t-221.5 -91zM650 1865q0 -59 70 -59q52 0 79 34.5t27 76.5q0 28 -18.5 43.5t-51.5 15.5q-52 0 -79 -35.5t-27 -75.5z" />
    <glyph glyph-name="uring" unicode="&#x16f;" horiz-adv-x="971" 
d="M164 -20q-103 0 -150.5 54.5t-47.5 149.5q0 63 15 132l186 879h304l-181 -854q-3 -11 -3 -24q0 -33 23.5 -54.5t59.5 -21.5q42 0 78 29.5t45 70.5l181 854h302l-254 -1195h-309l31 145q-18 -36 -48.5 -70t-93 -64.5t-138.5 -30.5zM592 1307q-96 0 -155.5 55t-59.5 138
q0 115 97.5 203.5t220.5 88.5q97 0 156 -56t59 -142q0 -104 -96 -195.5t-222 -91.5zM555 1524q0 -60 70 -60q52 0 78.5 34.5t26.5 76.5q0 28 -18.5 44t-51.5 16q-52 0 -78.5 -35.5t-26.5 -75.5z" />
    <glyph glyph-name="Uhungarumlaut" unicode="&#x170;" horiz-adv-x="1022" 
d="M860 404q-37 -176 -189 -303t-328 -127q-151 0 -248 96.5t-97 243.5q0 41 11 90l240 1132h299l-248 -1167q-3 -13 -3 -29q0 -46 28 -73.5t74 -27.5q53 0 99.5 38t57.5 92l248 1167h297zM865 1980l-259 -292h-277l253 292h283zM969 1980h284l-260 -292h-276z" />
    <glyph glyph-name="uhungarumlaut" unicode="&#x171;" horiz-adv-x="971" 
d="M164 -20q-103 0 -150.5 54.5t-47.5 149.5q0 63 15 132l186 879h304l-181 -854q-3 -11 -3 -24q0 -33 23.5 -54.5t59.5 -21.5q42 0 78 29.5t45 70.5l181 854h302l-254 -1195h-309l31 145q-18 -36 -48.5 -70t-93 -64.5t-138.5 -30.5zM770 1638l-260 -291h-276l252 291h284z
M874 1638h283l-259 -291h-277z" />
    <glyph glyph-name="Uogonek" unicode="&#x172;" horiz-adv-x="1022" 
d="M860 404q-33 -155 -157.5 -274.5t-280.5 -148.5q-86 -51 -116 -74.5t-30 -48.5q0 -30 70 -30h58l-42 -202h-115q-103 0 -161.5 39t-58.5 96q0 68 51 130t132 107q-98 36 -155 120.5t-57 195.5q0 41 11 90l240 1132h299l-248 -1167q-3 -13 -3 -29q0 -46 28 -73.5t74 -27.5
q53 0 99.5 38t57.5 92l248 1167h297z" />
    <glyph glyph-name="uogonek" unicode="&#x173;" horiz-adv-x="971" 
d="M164 -20q-103 0 -150.5 54.5t-47.5 149.5q0 63 15 132l186 879h304l-181 -854q-3 -11 -3 -24q0 -33 23.5 -54.5t59.5 -21.5q42 0 78 29.5t45 70.5l181 854h302l-254 -1195h-38q-89 -52 -121 -77.5t-32 -50.5q0 -31 70 -31h58l-43 -201h-114q-103 0 -161.5 39t-58.5 96
q0 63 44.5 121.5t117.5 103.5h-31l31 145q-18 -36 -48.5 -70t-93 -64.5t-138.5 -30.5z" />
    <glyph glyph-name="Wcircumflex" unicode="&#x174;" horiz-adv-x="1409" 
d="M655 0l164 1294l-386 -1294h-407l174 1536h297l-176 -1289l384 1289h336l-162 -1268l365 1268h301l-483 -1536h-407zM944 1819l-133 -131h-285l310 292h284l187 -292h-285z" />
    <glyph glyph-name="wcircumflex" unicode="&#x175;" horiz-adv-x="1344" 
d="M611 0l104 976l-307 -976h-389l106 1195h310l-121 -924l282 924h332l-112 -932l271 932h314l-399 -1195h-391zM848 1478l-133 -131h-285l311 291h283l188 -291h-285z" />
    <glyph glyph-name="Ycircumflex" unicode="&#x176;" horiz-adv-x="1020" 
d="M626 616l-131 -616h-300l131 616l-142 920h308l44 -650l317 650h311zM742 1819l-133 -131h-285l311 292h283l188 -292h-285z" />
    <glyph glyph-name="ycircumflex" unicode="&#x177;" horiz-adv-x="1047" 
d="M579 -135q-52 -123 -148 -197t-216 -74h-235l51 242h169q39 0 73.5 24t47.5 60l29 80h-208l6 1195h326l-58 -1019l378 1019h329zM742 1478l-133 -131h-285l311 291h283l188 -291h-285z" />
    <glyph glyph-name="Ydieresis" unicode="&#x178;" horiz-adv-x="1020" 
d="M626 616l-131 -616h-300l131 616l-142 920h308l44 -650l317 650h311zM457 1621q-53 0 -85 32.5t-32 80.5q0 68 54.5 121t124.5 53q55 0 84.5 -34.5t29.5 -83.5q0 -63 -53.5 -116t-122.5 -53zM944 1908q55 0 84.5 -34t29.5 -84q0 -62 -54.5 -115.5t-119.5 -53.5
q-54 0 -86 33t-32 82q0 67 55 119.5t123 52.5z" />
    <glyph glyph-name="Zacute" unicode="&#x179;" horiz-adv-x="897" 
d="M-113 0l55 251l684 1024h-467l56 261h795l-53 -246l-686 -1027h468l-56 -263h-796zM1084 1980l-313 -292h-274l254 292h333z" />
    <glyph glyph-name="zacute" unicode="&#x17a;" horiz-adv-x="762" 
d="M427 942h-328l53 253h640l-51 -243l-502 -699h372l-55 -253h-686l53 242zM975 1638l-313 -291h-275l255 291h333z" />
    <glyph glyph-name="Zdotaccent" unicode="&#x17b;" horiz-adv-x="897" 
d="M-113 0l55 251l684 1024h-467l56 261h795l-53 -246l-686 -1027h468l-56 -263h-796zM667 1669q-67 0 -105 32.5t-38 88.5q0 82 58.5 146t154.5 64q68 0 106 -33.5t38 -92.5q0 -81 -59.5 -143t-154.5 -62z" />
    <glyph glyph-name="zdotaccent" unicode="&#x17c;" horiz-adv-x="762" 
d="M427 942h-328l53 253h640l-51 -243l-502 -699h372l-55 -253h-686l53 242zM558 1328q-67 0 -105 32.5t-38 88.5q0 82 58.5 146t154.5 64q67 0 105 -33.5t38 -92.5q0 -81 -59 -143t-154 -62z" />
    <glyph glyph-name="Zcaron" unicode="&#x17d;" horiz-adv-x="897" 
d="M-113 0l55 251l684 1024h-467l56 261h795l-53 -246l-686 -1027h468l-56 -263h-796zM768 1688h-283l-188 292h285l78 -132l134 132h285z" />
    <glyph glyph-name="zcaron" unicode="&#x17e;" horiz-adv-x="762" 
d="M427 942h-328l53 253h640l-51 -243l-502 -699h372l-55 -253h-686l53 242zM659 1347h-284l-187 291h285l78 -131l133 131h285z" />
    <glyph glyph-name="uni01CD" unicode="&#x1cd;" horiz-adv-x="1145" 
d="M676 447h-318l-174 -447h-293l653 1536h417v-1536h-299zM684 703l14 584l-237 -584h223zM901 1688h-283l-188 292h285l79 -132l133 132h285z" />
    <glyph glyph-name="uni01CE" unicode="&#x1ce;" horiz-adv-x="884" 
d="M372 75q-71 -95 -206 -95q-105 0 -169.5 69t-64.5 190q0 98 35.5 191t102.5 169t176 122.5t242 46.5h17l26 123q7 35 7 44q0 53 -52 53q-74 0 -92 -94l-10 -51h-290l20 91q30 134 149.5 209.5t282.5 75.5q156 0 233.5 -55t77.5 -154q0 -32 -7 -66l-200 -944h-295z
M239 287q0 -91 60 -91q48 0 74.5 31.5t42.5 108.5l55 255h-26q-50 0 -88.5 -23t-60 -56.5t-35.5 -77.5t-18 -79t-4 -68zM688 1347h-284l-187 291h285l78 -131l133 131h285z" />
    <glyph glyph-name="uni01E2" unicode="&#x1e2;" horiz-adv-x="1769" 
d="M1012 1707l48 222h549l-47 -222h-550zM664 1536h1164l-56 -261h-422l-72 -335h357l-53 -256h-357l-90 -425h421l-56 -259h-718l95 447h-399l-174 -447h-294zM932 703l119 563h-239l-232 -563h352z" />
    <glyph glyph-name="uni01E3" unicode="&#x1e3;" horiz-adv-x="1336" 
d="M445 591q-47 0 -84.5 -22t-60 -55t-37 -76t-19.5 -80t-5 -71q0 -91 60 -91q48 0 74.5 31.5t42.5 108.5l55 255h-26zM488 768h17l34 160q5 25 5 45q0 53 -49 53q-71 0 -92 -94l-19 -89h-290l20 91q30 134 149.5 209.5t282.5 75.5q149 0 231 -48q99 44 233 44
q314 0 314 -270q0 -65 -15 -141l-61 -290h-487l-36 -174q-3 -15 -3 -35q0 -35 23 -56.5t64 -21.5q42 0 78 30.5t45 73.5l12 60h278l-10 -45q-38 -163 -162 -264.5t-302 -101.5q-76 0 -130 20h-263l17 75q-20 -26 -40 -44t-64.5 -34.5t-101.5 -16.5q-104 0 -169 69.5
t-65 189.5q0 98 35.5 191t102.5 169t176 122.5t242 46.5zM1044 862q7 35 7 53q0 80 -82 80q-61 0 -90.5 -35.5t-43.5 -104.5l-36 -166h208zM1149 1645l-48 -222h-591l48 222h591z" />
    <glyph glyph-name="Gcaron" unicode="&#x1e6;" horiz-adv-x="1054" 
d="M358 -26q-178 0 -278 100t-100 257q0 62 11 108l137 655q41 195 206 331.5t359 136.5q164 0 268 -105.5t104 -268.5q0 -48 -10 -94l-24 -121h-299l33 159q3 14 3 34q0 56 -35.5 91t-95.5 35q-70 0 -126.5 -50.5t-71.5 -118.5l-152 -725q-4 -20 -4 -36q0 -52 37 -88.5
t95 -36.5q90 0 172 55l56 271h-191l57 265h489l-128 -611q-2 -10 -22.5 -35.5t-64.5 -61.5t-101 -68t-143.5 -55t-180.5 -23zM831 1688h-283l-188 292h285l79 -132l133 132h285z" />
    <glyph glyph-name="gcaron" unicode="&#x1e7;" horiz-adv-x="923" 
d="M671 -102q-33 -158 -163 -260t-303 -102q-148 0 -231 78t-83 205q0 36 8 79l9 42h271l-12 -58q-3 -10 -3 -24q0 -33 23 -54.5t59 -21.5q44 0 80.5 28.5t45.5 71.5l53 253q-34 -62 -98.5 -103.5t-140.5 -41.5q-229 0 -229 234q0 52 23 167l107 502q19 86 77.5 159.5
t141 115.5t168.5 42q77 0 132.5 -38t72.5 -112l29 135h237zM266 338q-3 -11 -3 -26q0 -31 23.5 -53.5t58.5 -22.5q41 0 77.5 31t45.5 71l112 527q4 14 4 24q0 34 -23.5 55.5t-60.5 21.5q-41 0 -76.5 -30t-44.5 -71zM669 1347h-283l-188 291h285l78 -131l134 131h285z" />
    <glyph glyph-name="uni01E8" unicode="&#x1e8;" horiz-adv-x="996" 
d="M447 567l-188 -296l-44 -271h-294l328 1536h294l-161 -739l441 739h332l-466 -708l130 -828h-322zM814 1688h-283l-188 292h285l79 -132l133 132h285z" />
    <glyph glyph-name="uni01E9" unicode="&#x1e9;" horiz-adv-x="954" 
d="M642 635l87 -635h-318l-29 265l-148 -210l-12 -55h-301l328 1536h301l-205 -959l385 618h306zM613 1688h-284l-187 292h285l78 -132l133 132h285z" />
    <glyph glyph-name="uni01F5" unicode="&#x1f5;" horiz-adv-x="923" 
d="M671 -102q-33 -158 -163 -260t-303 -102q-148 0 -231 78t-83 205q0 36 8 79l9 42h271l-12 -58q-3 -10 -3 -24q0 -33 23 -54.5t59 -21.5q44 0 80.5 28.5t45.5 71.5l53 253q-34 -62 -98.5 -103.5t-140.5 -41.5q-229 0 -229 234q0 52 23 167l107 502q19 86 77.5 159.5
t141 115.5t168.5 42q77 0 132.5 -38t72.5 -112l29 135h237zM266 338q-3 -11 -3 -26q0 -31 23.5 -53.5t58.5 -22.5q41 0 77.5 31t45.5 71l112 527q4 14 4 24q0 34 -23.5 55.5t-60.5 21.5q-41 0 -76.5 -30t-44.5 -71zM985 1638l-313 -291h-274l254 291h333z" />
    <glyph glyph-name="AEacute" unicode="&#x1fc;" horiz-adv-x="1769" 
d="M1109 1707l255 292h281l-261 -292h-275zM664 1536h1164l-56 -261h-422l-72 -335h357l-53 -256h-357l-90 -425h421l-56 -259h-718l95 447h-399l-174 -447h-294zM932 703l119 563h-239l-232 -563h352z" />
    <glyph glyph-name="aeacute" unicode="&#x1fd;" horiz-adv-x="1336" 
d="M445 591q-47 0 -84.5 -22t-60 -55t-37 -76t-19.5 -80t-5 -71q0 -91 60 -91q48 0 74.5 31.5t42.5 108.5l55 255h-26zM488 768h17l34 160q5 25 5 45q0 53 -49 53q-71 0 -92 -94l-19 -89h-290l20 91q30 134 149.5 209.5t282.5 75.5q149 0 231 -48q99 44 233 44
q314 0 314 -270q0 -65 -15 -141l-61 -290h-487l-36 -174q-3 -15 -3 -35q0 -35 23 -56.5t64 -21.5q42 0 78 30.5t45 73.5l12 60h278l-10 -45q-38 -163 -162 -264.5t-302 -101.5q-76 0 -130 20h-263l17 75q-20 -26 -40 -44t-64.5 -34.5t-101.5 -16.5q-104 0 -169 69.5
t-65 189.5q0 98 35.5 191t102.5 169t176 122.5t242 46.5zM1044 862q7 35 7 53q0 80 -82 80q-61 0 -90.5 -35.5t-43.5 -104.5l-36 -166h208zM1239 1645l-312 -292h-275l254 292h333z" />
    <glyph glyph-name="Oslashacute" unicode="&#x1fe;" horiz-adv-x="1283" 
d="M845 1562q117 0 205 -53.5t133 -144.5l133 141h159l-258 -271q2 -12 2 -44q0 -43 -11 -93l-140 -658q-27 -125 -110.5 -230.5t-202.5 -166.5t-246 -61q-105 0 -188 43.5t-133 120.5l-137 -145h-159l250 263q-9 47 -9 80q0 47 10 96l140 658q27 126 112 233t205 169.5
t245 62.5zM439 365q0 -55 34.5 -89.5t91.5 -34.5q67 0 124.5 46.5t71.5 113.5l97 452l-413 -437q-6 -23 -6 -51zM918 1135q4 20 4 31q0 55 -37 93t-95 38q-66 0 -121.5 -48t-69.5 -114l-107 -502l413 437zM1294 1980l-313 -292h-274l254 292h333z" />
    <glyph glyph-name="oslashacute" unicode="&#x1ff;" horiz-adv-x="904" 
d="M-38 217q-3 15 -3 36q0 43 10 87l103 481q85 398 479 398q226 0 292 -135l79 78h148l-200 -198v-17q0 -61 -15 -135l-106 -496q-32 -153 -156.5 -246.5t-300.5 -93.5q-102 0 -176.5 34.5t-113.5 97.5l-110 -108h-148zM268 326q-3 -10 -3 -24q0 -35 24 -57.5t63 -22.5
q41 0 76.5 30.5t44.5 73.5l66 312l-259 -256zM584 852q8 35 8 61q0 75 -82 75q-60 0 -88.5 -35.5t-42.5 -105.5l-60 -279l258 255zM1015 1638l-312 -291h-275l255 291h332z" />
    <glyph glyph-name="uni0218" unicode="&#x218;" horiz-adv-x="882" 
d="M273 -26q-148 0 -237 90.5t-89 237.5q0 51 10 102l11 50h264l-10 -50q-4 -24 -4 -40q0 -122 113 -122q49 0 87 21t59 55t31.5 72.5t10.5 77.5q0 53 -34 90t-98 73q-37 21 -66 40.5t-73 59t-73.5 81.5t-51.5 104t-22 130q0 102 35 195t98.5 164.5t160 114t211.5 42.5
q153 0 235 -88.5t82 -249.5q0 -74 -17 -152h-266q14 64 14 106q0 62 -24.5 89.5t-79.5 27.5q-47 0 -84 -20.5t-56.5 -51.5t-29.5 -62.5t-10 -59.5q0 -119 162 -214q127 -76 191.5 -161t64.5 -209q0 -148 -66 -272.5t-185 -197.5t-264 -73zM428 -133l-199 -326h-222l138 326
h283z" />
    <glyph glyph-name="uni0219" unicode="&#x219;" horiz-adv-x="762" 
d="M213 -24q-121 0 -194.5 73.5t-73.5 189.5q0 51 19 121h265q-11 -42 -11 -61q0 -57 53 -57q34 0 55.5 24t28.5 51.5t7 56.5q0 62 -75 92q-113 47 -167.5 121t-54.5 191q0 77 28.5 154t79 140.5t129.5 103t172 39.5q121 0 189.5 -69.5t68.5 -193.5q0 -64 -13 -126h-265
q10 41 10 73q0 52 -46 52q-83 0 -83 -118q0 -39 30.5 -68t98.5 -65q79 -41 124 -98.5t45 -154.5q0 -81 -26.5 -162t-76 -151t-132.5 -114t-185 -44zM362 -133l-200 -326h-222l139 326h283z" />
    <glyph glyph-name="uni021A" unicode="&#x21a;" horiz-adv-x="887" 
d="M927 1273h-249l-272 -1273h-298l271 1273h-254l56 263h802zM386 -133l-200 -326h-222l138 326h284z" />
    <glyph glyph-name="uni021B" unicode="&#x21b;" horiz-adv-x="727" 
d="M357 329q-4 -18 -4 -25q0 -20 16.5 -32.5t40.5 -12.5h167l-56 -259h-291q-87 0 -141.5 53t-54.5 135q0 18 7 53l150 708h-142l53 246h142l46 216h297l-46 -216h193l-53 -246h-193zM420 -133l-200 -326h-222l139 326h283z" />
    <glyph glyph-name="uni0237" unicode="&#x237;" horiz-adv-x="486" 
d="M200 -7q-32 -151 -159.5 -257t-274.5 -106q-99 0 -126 8l51 236h89q41 0 77.5 31t45.5 73l257 1217h296z" />
    <glyph glyph-name="circumflex" unicode="&#x2c6;" horiz-adv-x="1058" 
d="M604 1121l-133 -131h-285l311 292h283l188 -292h-285z" />
    <glyph glyph-name="caron" unicode="&#x2c7;" horiz-adv-x="1058" 
d="M719 990h-284l-188 292h285l79 -132l133 132h285z" />
    <glyph glyph-name="breve" unicode="&#x2d8;" horiz-adv-x="680" 
d="M283 1754q-130 0 -198 55t-68 157q0 29 5 62l4 20h223q-5 -23 -5 -39q0 -77 77 -77q96 0 119 116h224l-4 -20q-22 -127 -124.5 -200.5t-252.5 -73.5z" />
    <glyph glyph-name="dotaccent" unicode="&#x2d9;" horiz-adv-x="1058" 
d="M573 978q-78 0 -116 45t-22 120q15 75 72.5 120.5t135.5 45.5t116.5 -45t23.5 -121q-16 -75 -74 -120t-136 -45z" />
    <glyph glyph-name="ring" unicode="&#x2da;" horiz-adv-x="1058" 
d="M572 966q-110 0 -171 71t-39 171q20 100 111 171.5t201 71.5t170 -71t40 -172q-22 -101 -112 -171.5t-200 -70.5zM538 1208q-9 -40 8 -62.5t58 -22.5t68 22.5t36 62.5q8 40 -9.5 63t-58.5 23t-67.5 -23t-34.5 -63z" />
    <glyph glyph-name="ogonek" unicode="&#x2db;" horiz-adv-x="1058" 
d="M304 -365q-121 0 -177.5 46t-39.5 123q17 80 100 150.5t211 106.5l97 -61q-152 -89 -162 -128q-4 -18 14 -27t56 -9h58l-43 -201h-114z" />
    <glyph glyph-name="tilde" unicode="&#x2dc;" horiz-adv-x="1058" 
d="M720 988q-38 0 -67 10.5t-73 35.5q-46 29 -71 29q-44 0 -57 -71h-206q61 288 247 288q38 0 68.5 -11t71.5 -35q46 -29 72 -29q22 0 35.5 16.5t20.5 55.5h207q-61 -289 -248 -289z" />
    <glyph glyph-name="hungarumlaut" unicode="&#x2dd;" horiz-adv-x="1058" 
d="M782 1282l-260 -292h-276l252 292h284zM886 1282h283l-259 -292h-277z" />
    <glyph glyph-name="gravecomb" unicode="&#x300;" 
d="M17 2048h333l131 -292h-274z" />
    <glyph glyph-name="acutecomb" unicode="&#x301;" 
d="M604 2048l-312 -292h-275l254 292h333z" />
    <glyph glyph-name="uni0302" unicode="&#x302;" 
d="M435 1888l-133 -132h-285l311 292h283l188 -292h-285z" />
    <glyph glyph-name="tildecomb" unicode="&#x303;" 
d="M492 1760q-70 0 -140 46q-46 29 -72 29q-22 0 -35.5 -16.5t-20.5 -55.5h-207q61 288 248 288q68 0 139 -46q46 -29 72 -29q22 0 35.5 16.5t20.5 55.5h207q-61 -288 -247 -288z" />
    <glyph glyph-name="uni0304" unicode="&#x304;" 
d="M655 2048l-47 -222h-591l48 222h590z" />
    <glyph glyph-name="uni0306" unicode="&#x306;" 
d="M283 1754q-130 0 -198 55t-68 157q0 29 5 62l4 20h223q-5 -23 -5 -39q0 -77 77 -77q96 0 119 116h224l-4 -20q-22 -127 -124.5 -200.5t-252.5 -73.5z" />
    <glyph glyph-name="uni0307" unicode="&#x307;" 
d="M160 1737q-67 0 -105 33t-38 89q0 82 58.5 145.5t154.5 63.5q68 0 106 -33.5t38 -92.5q0 -81 -59.5 -143t-154.5 -62z" />
    <glyph glyph-name="uni0308" unicode="&#x308;" 
d="M135 1775q-53 0 -85.5 32.5t-32.5 80.5q0 68 54.5 121t124.5 53q55 0 85 -34.5t30 -83.5q0 -63 -53.5 -116t-122.5 -53zM621 2062q55 0 85 -34t30 -84q0 -62 -55 -115.5t-120 -53.5q-54 0 -85.5 32.5t-31.5 81.5q0 67 54.5 120t122.5 53z" />
    <glyph glyph-name="uni030A" unicode="&#x30a;" 
d="M232 1580q-96 0 -155.5 55t-59.5 138q0 115 97.5 203.5t220.5 88.5q97 0 156 -56t59 -142q0 -104 -96 -195.5t-222 -91.5zM195 1797q0 -60 70 -60q52 0 78.5 34.5t26.5 76.5q0 28 -18.5 44t-51.5 16q-52 0 -78.5 -35.5t-26.5 -75.5z" />
    <glyph glyph-name="uni030B" unicode="&#x30b;" 
d="M553 2048l-259 -292h-277l253 292h283zM657 2048h283l-259 -292h-277z" />
    <glyph glyph-name="uni030C" unicode="&#x30c;" 
d="M488 1756h-283l-188 292h285l79 -131l133 131h285z" />
    <glyph glyph-name="uni0312" unicode="&#x312;" 
d="M17 1722l200 326h222l-139 -326h-283z" />
    <glyph glyph-name="uni0315" unicode="&#x315;" 
d="M-273 1316l-138 -367h-219l77 367h280z" />
    <glyph glyph-name="uni0326" unicode="&#x326;" 
d="M439 -133l-200 -326h-222l138 326h284z" />
    <glyph glyph-name="uni0327" unicode="&#x327;" 
d="M99 2h125l-33 -74q15 5 39 5q25 0 51.5 -6t56 -20.5t48 -45t18.5 -73.5q0 -82 -59 -130.5t-156 -48.5q-104 0 -191 56l38 120q74 -55 141 -55q91 0 91 48q0 68 -225 68z" />
    <glyph glyph-name="uni0328" unicode="&#x328;" 
d="M237 -365q-103 0 -161.5 39t-58.5 96q0 96 96 176.5t218 114.5l97 -61q-98 -57 -130 -82t-32 -51q0 -31 70 -31h58l-42 -201h-115z" />
    <glyph glyph-name="uni1E20" unicode="&#x1e20;" horiz-adv-x="1054" 
d="M358 -26q-178 0 -278 100t-100 257q0 62 11 108l137 655q41 195 206 331.5t359 136.5q164 0 268 -105.5t104 -268.5q0 -48 -10 -94l-24 -121h-299l33 159q3 14 3 34q0 56 -35.5 91t-95.5 35q-70 0 -126.5 -50.5t-71.5 -118.5l-152 -725q-4 -20 -4 -36q0 -52 37 -88.5
t95 -36.5q90 0 172 55l56 271h-191l57 265h489l-128 -611q-2 -10 -22.5 -35.5t-64.5 -61.5t-101 -68t-143.5 -55t-180.5 -23zM1056 1980l-47 -222h-591l48 222h590z" />
    <glyph glyph-name="uni1E21" unicode="&#x1e21;" horiz-adv-x="923" 
d="M671 -102q-33 -158 -163 -260t-303 -102q-148 0 -231 78t-83 205q0 36 8 79l9 42h271l-12 -58q-3 -10 -3 -24q0 -33 23 -54.5t59 -21.5q44 0 80.5 28.5t45.5 71.5l53 253q-34 -62 -98.5 -103.5t-140.5 -41.5q-229 0 -229 234q0 52 23 167l107 502q19 86 77.5 159.5
t141 115.5t168.5 42q77 0 132.5 -38t72.5 -112l29 135h237zM266 338q-3 -11 -3 -26q0 -31 23.5 -53.5t58.5 -22.5q41 0 77.5 31t45.5 71l112 527q4 14 4 24q0 34 -23.5 55.5t-60.5 21.5q-41 0 -76.5 -30t-44.5 -71zM894 1638l-47 -221h-591l48 221h590z" />
    <glyph glyph-name="uni1E30" unicode="&#x1e30;" horiz-adv-x="996" 
d="M447 567l-188 -296l-44 -271h-294l328 1536h294l-161 -739l441 739h332l-466 -708l130 -828h-322zM1130 1980l-313 -292h-274l254 292h333z" />
    <glyph glyph-name="uni1E31" unicode="&#x1e31;" horiz-adv-x="954" 
d="M642 635l87 -635h-318l-29 265l-148 -210l-12 -55h-301l328 1536h301l-205 -959l385 618h306zM928 1980l-312 -292h-275l255 292h332z" />
    <glyph glyph-name="uni1E3E" unicode="&#x1e3e;" horiz-adv-x="1360" 
d="M1111 0h-276l266 1251l-437 -1251h-289l98 1263l-270 -1263h-282l328 1536h454l-107 -1179l396 1179h447zM1307 1980l-312 -292h-275l255 292h332z" />
    <glyph glyph-name="uni1E3F" unicode="&#x1e3f;" horiz-adv-x="1373" 
d="M1043 896q3 10 3 29q0 72 -65 72q-44 0 -73.5 -26.5t-40.5 -74.5l-191 -896h-304l200 899q3 11 3 29q0 72 -65 72q-43 0 -74 -29t-40 -72l-191 -899h-294l255 1195h204l-20 -94q44 52 112.5 83t143.5 31q181 0 232 -104q45 52 108.5 78t125.5 26q276 0 276 -235
q0 -51 -13 -106l-186 -874h-296zM1270 1638l-313 -291h-274l254 291h333z" />
    <glyph glyph-name="uni1E40" unicode="&#x1e40;" horiz-adv-x="1360" 
d="M1111 0h-276l266 1251l-437 -1251h-289l98 1263l-270 -1263h-282l328 1536h454l-107 -1179l396 1179h447zM891 1669q-67 0 -105 32.5t-38 88.5q0 82 58.5 146t154.5 64q67 0 105 -33.5t38 -92.5q0 -81 -59 -143t-154 -62z" />
    <glyph glyph-name="uni1E41" unicode="&#x1e41;" horiz-adv-x="1373" 
d="M1043 896q3 10 3 29q0 72 -65 72q-44 0 -73.5 -26.5t-40.5 -74.5l-191 -896h-304l200 899q3 11 3 29q0 72 -65 72q-43 0 -74 -29t-40 -72l-191 -899h-294l255 1195h204l-20 -94q44 52 112.5 83t143.5 31q181 0 232 -104q45 52 108.5 78t125.5 26q276 0 276 -235
q0 -51 -13 -106l-186 -874h-296zM853 1328q-67 0 -105 32.5t-38 88.5q0 82 58.5 146t154.5 64q68 0 106 -33.5t38 -92.5q0 -81 -59.5 -143t-154.5 -62z" />
    <glyph glyph-name="uni1E44" unicode="&#x1e44;" horiz-adv-x="1087" 
d="M-79 0l328 1536h393l-17 -1137l242 1137h299l-328 -1536h-387l8 1152l-246 -1152h-292zM783 1669q-67 0 -105 32.5t-38 88.5q0 82 58.5 146t154.5 64q68 0 106 -33.5t38 -92.5q0 -81 -59.5 -143t-154.5 -62z" />
    <glyph glyph-name="uni1E45" unicode="&#x1e45;" horiz-adv-x="945" 
d="M722 1220q198 0 198 -215q0 -60 -15 -126l-188 -879h-304l183 853q1 3 1 19q0 35 -23 58.5t-60 23.5q-41 0 -76.5 -30t-44.5 -71l-183 -853h-302l254 1195h309l-31 -145q14 27 35 53t55 54t84 45.5t108 17.5zM640 1328q-67 0 -105 32.5t-38 88.5q0 82 58.5 146t154.5 64
q67 0 105 -33.5t38 -92.5q0 -81 -59 -143t-154 -62z" />
    <glyph glyph-name="Wgrave" unicode="&#x1e80;" horiz-adv-x="1409" 
d="M655 0l164 1294l-386 -1294h-407l174 1536h297l-176 -1289l384 1289h336l-162 -1268l365 1268h301l-483 -1536h-407zM591 1980h332l132 -292h-275z" />
    <glyph glyph-name="wgrave" unicode="&#x1e81;" horiz-adv-x="1344" 
d="M611 0l104 976l-307 -976h-389l106 1195h310l-121 -924l282 924h332l-112 -932l271 932h314l-399 -1195h-391zM495 1638h333l131 -291h-275z" />
    <glyph glyph-name="Wacute" unicode="&#x1e82;" horiz-adv-x="1409" 
d="M655 0l164 1294l-386 -1294h-407l174 1536h297l-176 -1289l384 1289h336l-162 -1268l365 1268h301l-483 -1536h-407zM1312 1980l-312 -292h-275l255 292h332z" />
    <glyph glyph-name="wacute" unicode="&#x1e83;" horiz-adv-x="1344" 
d="M611 0l104 976l-307 -976h-389l106 1195h310l-121 -924l282 924h332l-112 -932l271 932h314l-399 -1195h-391zM1217 1638l-312 -291h-275l254 291h333z" />
    <glyph glyph-name="Wdieresis" unicode="&#x1e84;" horiz-adv-x="1409" 
d="M655 0l164 1294l-386 -1294h-407l174 1536h297l-176 -1289l384 1289h336l-162 -1268l365 1268h301l-483 -1536h-407zM659 1621q-53 0 -85.5 32.5t-32.5 80.5q0 68 54.5 121t124.5 53q55 0 85 -34.5t30 -83.5q0 -63 -53.5 -116t-122.5 -53zM1145 1908q55 0 85 -34t30 -84
q0 -62 -55 -115.5t-120 -53.5q-54 0 -85.5 33t-31.5 82q0 67 54.5 119.5t122.5 52.5z" />
    <glyph glyph-name="wdieresis" unicode="&#x1e85;" horiz-adv-x="1344" 
d="M611 0l104 976l-307 -976h-389l106 1195h310l-121 -924l282 924h332l-112 -932l271 932h314l-399 -1195h-391zM563 1280q-53 0 -85.5 32.5t-32.5 80.5q0 68 55 121t125 53q55 0 84.5 -34.5t29.5 -83.5q0 -63 -53.5 -116t-122.5 -53zM1050 1567q55 0 84.5 -34t29.5 -84
q0 -62 -54.5 -115.5t-119.5 -53.5q-55 0 -86.5 32.5t-31.5 81.5q0 67 55 120t123 53z" />
    <glyph glyph-name="uni1E90" unicode="&#x1e90;" horiz-adv-x="897" 
d="M-113 0l55 251l684 1024h-467l56 261h795l-53 -246l-686 -1027h468l-56 -263h-796zM715 1819l-133 -131h-285l311 292h283l188 -292h-285z" />
    <glyph glyph-name="uni1E91" unicode="&#x1e91;" horiz-adv-x="762" 
d="M427 942h-328l53 253h640l-51 -243l-502 -699h372l-55 -253h-686l53 242zM606 1478l-133 -131h-285l310 291h284l187 -291h-285z" />
    <glyph glyph-name="uni1E9E" unicode="&#x1e9e;" horiz-adv-x="1122" 
d="M1128 1539q63 0 63 -35q0 -40 -136 -284t-220 -382q84 -16 129 -94.5t45 -197.5q0 -82 -16.5 -158.5t-54 -148t-92.5 -124t-137 -84t-182 -31.5h-230l55 258h157q54 0 94 25t62 67t32.5 87.5t10.5 94.5q0 154 -128 154h-116l362 575h-225q-40 0 -72 -24.5t-52.5 -66
t-32 -77t-19.5 -74.5l-218 -1019h-286l222 1033q23 109 66.5 199.5t107 160t151 108t191.5 38.5h469z" />
    <glyph glyph-name="Ygrave" unicode="&#x1ef2;" horiz-adv-x="1020" 
d="M626 616l-131 -616h-300l131 616l-142 920h308l44 -650l317 650h311zM389 1980h333l131 -292h-274z" />
    <glyph glyph-name="ygrave" unicode="&#x1ef3;" horiz-adv-x="1047" 
d="M579 -135q-52 -123 -148 -197t-216 -74h-235l51 242h169q39 0 73.5 24t47.5 60l29 80h-208l6 1195h326l-58 -1019l378 1019h329zM389 1638h333l131 -291h-274z" />
    <glyph glyph-name="uni2000" unicode="&#x2000;" horiz-adv-x="853" 
 />
    <glyph glyph-name="uni2001" unicode="&#x2001;" horiz-adv-x="1706" 
 />
    <glyph glyph-name="uni2002" unicode="&#x2002;" horiz-adv-x="853" 
 />
    <glyph glyph-name="uni2003" unicode="&#x2003;" horiz-adv-x="1706" 
 />
    <glyph glyph-name="uni2009" unicode="&#x2009;" horiz-adv-x="341" 
 />
    <glyph glyph-name="uni200A" unicode="&#x200a;" horiz-adv-x="102" 
 />
    <glyph glyph-name="uni200B" unicode="&#x200b;" 
 />
    <glyph glyph-name="endash" unicode="&#x2013;" horiz-adv-x="955" 
d="M870 695l-51 -239h-853l51 239h853z" />
    <glyph glyph-name="emdash" unicode="&#x2014;" horiz-adv-x="1810" 
d="M1725 695l-51 -239h-1708l51 239h1708z" />
    <glyph glyph-name="quoteleft" unicode="&#x2018;" horiz-adv-x="542" 
d="M464 1408q-61 0 -99 -14.5t-51 -53.5q44 -14 68 -51.5t24 -81.5q0 -77 -55.5 -133.5t-140.5 -56.5q-84 0 -123 51t-39 130q0 46 13 92.5t45.5 95.5t81.5 86.5t128.5 61.5t178.5 24z" />
    <glyph glyph-name="quoteright" unicode="&#x2019;" horiz-adv-x="614" 
d="M150 1167q127 0 150 69q-44 14 -68 51.5t-24 81.5q0 77 55.5 133t140.5 56q84 0 123.5 -51t39.5 -130q0 -46 -13 -92.5t-46 -95.5t-82 -86.5t-128.5 -61.5t-178.5 -24z" />
    <glyph glyph-name="quotesinglbase" unicode="&#x201a;" horiz-adv-x="506" 
d="M43 -70q61 0 99 14.5t51 53.5q-44 14 -68 51.5t-24 81.5q0 77 55.5 133.5t140.5 56.5q84 0 123 -51t39 -130q0 -46 -13 -92.5t-45.5 -95.5t-81.5 -86.5t-128.5 -61.5t-178.5 -24z" />
    <glyph glyph-name="quotedblleft" unicode="&#x201c;" horiz-adv-x="948" 
d="M906 1609q-61 0 -99 -14.5t-51 -53.5q44 -14 68 -51.5t24 -81.5q0 -77 -55.5 -133t-140.5 -56q-84 0 -123 50.5t-39 129.5q0 46 13 92.5t45.5 95.5t81.5 87t128.5 62t178.5 24zM502 1609q-61 0 -99 -14.5t-51 -53.5q44 -14 68 -51.5t24 -81.5q0 -76 -56 -132.5
t-141 -56.5q-84 0 -123 50.5t-39 129.5q0 46 13 92.5t45.5 95.5t81.5 87t128.5 62t178.5 24z" />
    <glyph glyph-name="quotedblright" unicode="&#x201d;" horiz-adv-x="948" 
d="M43 1432q61 0 99 14.5t51 53.5q-44 14 -68 51.5t-24 81.5q0 77 55.5 133.5t140.5 56.5q84 0 123 -51t39 -130q0 -46 -13 -92.5t-45.5 -95.5t-81.5 -86.5t-128.5 -61.5t-178.5 -24zM447 1432q61 0 99 14.5t51 53.5q-44 14 -68 51.5t-24 81.5q0 77 55.5 133.5t140.5 56.5
q84 0 123.5 -51t39.5 -130q0 -46 -13 -92.5t-46 -95.5t-82 -86.5t-128.5 -61.5t-178.5 -24z" />
    <glyph glyph-name="quotedblbase" unicode="&#x201e;" horiz-adv-x="948" 
d="M43 -70q61 0 99 14.5t51 53.5q-44 14 -68 51.5t-24 81.5q0 77 55.5 133.5t140.5 56.5q84 0 123 -51t39 -130q0 -46 -13 -92.5t-45.5 -95.5t-81.5 -86.5t-128.5 -61.5t-178.5 -24zM447 -70q61 0 99 14.5t51 53.5q-44 14 -68 51.5t-24 81.5q0 77 55.5 133.5t140.5 56.5
q84 0 123.5 -51t39.5 -130q0 -46 -13 -92.5t-46 -95.5t-82 -86.5t-128.5 -61.5t-178.5 -24z" />
    <glyph glyph-name="dagger" unicode="&#x2020;" horiz-adv-x="936" 
d="M553 918l-195 -918h-273l195 918h-246l53 253h246l78 365h273l-78 -365h246l-53 -253h-246z" />
    <glyph glyph-name="daggerdbl" unicode="&#x2021;" horiz-adv-x="1012" 
d="M572 659h211l-53 -253h-211l-86 -406h-273l86 406h-212l53 253h212l56 259h-246l53 253h246l78 365h273l-78 -365h246l-53 -253h-246z" />
    <glyph glyph-name="bullet" unicode="&#x2022;" horiz-adv-x="870" 
d="M464 906q108 0 175.5 -64.5t67.5 -165.5q0 -147 -110.5 -257t-258.5 -110q-109 0 -175.5 65.5t-66.5 168.5q0 142 111 252.5t257 110.5z" />
    <glyph glyph-name="ellipsis" unicode="&#x2026;" horiz-adv-x="1459" 
d="M160 341q72 0 110.5 -35t38.5 -99q0 -20 -5 -48q-18 -84 -77.5 -133.5t-144.5 -49.5q-71 0 -110 35t-39 98q0 97 64.5 164.5t162.5 67.5zM640 341q72 0 110 -34.5t38 -98.5q0 -21 -5 -49q-18 -84 -77.5 -133.5t-144.5 -49.5q-69 0 -108.5 37t-39.5 98q0 96 64.5 163
t162.5 67zM1118 341q72 0 110 -34.5t38 -98.5q0 -21 -5 -49q-18 -84 -77.5 -133.5t-144.5 -49.5q-69 0 -108.5 36.5t-39.5 96.5q0 96 64 164t163 68z" />
    <glyph glyph-name="perthousand" unicode="&#x2030;" horiz-adv-x="2102" 
d="M1399 1536h248l-1312 -1536h-250zM703 1562q127 0 179.5 -46.5t52.5 -139.5q0 -32 -3 -66.5t-13 -80.5t-26 -87t-44.5 -82t-65.5 -71t-92.5 -48.5t-122.5 -18.5t-114 15.5t-71.5 44.5t-34.5 62.5t-10 76.5q0 31 3 63.5t13 77.5t26 84.5t44 80t65 69.5t92 47.5t122 18.5z
M555 1179q0 -58 56 -58q28 0 49 22t31 55t14.5 62t4.5 54q0 53 -50 53q-28 0 -50 -21t-33 -52.5t-16.5 -61t-5.5 -53.5zM1145 614q127 0 179.5 -46.5t52.5 -139.5q0 -32 -3 -66.5t-13 -80.5t-26 -87t-44.5 -82t-65.5 -71t-92.5 -48.5t-122.5 -18.5t-114 16t-71.5 45
t-34.5 62.5t-10 76.5q0 45 6.5 93.5t29.5 113.5t60.5 114t107 84t161.5 35zM997 232q0 -58 56 -58q28 0 49 22t31 55t14.5 62t4.5 54q0 53 -49 53q-37 0 -62.5 -37t-34.5 -77t-9 -74zM1785 614q127 0 179.5 -46.5t52.5 -139.5q0 -32 -3 -66.5t-13 -80.5t-26 -87t-44.5 -82
t-65.5 -71t-92.5 -48.5t-122.5 -18.5t-114 16t-71.5 45t-34.5 62.5t-10 76.5q0 45 6.5 93.5t29.5 113.5t60.5 114t107 84t161.5 35zM1637 232q0 -58 56 -58q28 0 49 22t31 55t14.5 62t4.5 54q0 53 -49 53q-37 0 -62.5 -37t-34.5 -77t-9 -74z" />
    <glyph glyph-name="guilsinglleft" unicode="&#x2039;" horiz-adv-x="626" 
d="M440 174h-298l-186 382l348 383h298l-346 -383z" />
    <glyph glyph-name="guilsinglright" unicode="&#x203a;" horiz-adv-x="626" 
d="M181 174h-299l348 382l-186 383h299l188 -383z" />
    <glyph glyph-name="fraction" unicode="&#x2044;" horiz-adv-x="372" 
d="M804 1195l-1091 -1195h-218l1090 1195h219z" />
    <glyph glyph-name="uni2070" unicode="&#x2070;" horiz-adv-x="607" 
d="M213 -14q-136 0 -173 72t3 256q38 184 106 256t204 72q135 0 172.5 -72t-1.5 -256q-40 -185 -107.5 -256.5t-203.5 -71.5zM225 314q-22 -104 -17.5 -144t36.5 -40q33 0 54 40t43 144t18.5 144t-36.5 40t-54.5 -40.5t-43.5 -143.5z" />
    <glyph glyph-name="uni2074" unicode="&#x2074;" horiz-adv-x="515" 
d="M220 258l36 160h160l-27 -160h75l-20 -133h-75l-23 -125h-170l24 125h-232l20 128l271 375h130l-271 -370h102z" />
    <glyph glyph-name="uni2075" unicode="&#x2075;" horiz-adv-x="525" 
d="M167 -14q-107 0 -156 57t-30 145h183q-7 -33 0 -47.5t31 -14.5q23 0 35.5 19t23.5 67q9 42 3 60t-30 18q-31 0 -51 -29h-156l79 367h394l-32 -152h-248l-18 -89q50 45 126 45q165 0 119 -214q-25 -120 -91 -176t-182 -56z" />
    <glyph glyph-name="uni2076" unicode="&#x2076;" horiz-adv-x="537" 
d="M297 430q171 0 171 -194q0 -42 -10.5 -81.5t-34.5 -79.5t-72 -64.5t-115 -24.5q-32 0 -58 3.5t-58 17t-54 36.5t-37 66.5t-15 103.5q0 38 4 76.5t13.5 90.5t30.5 95.5t51.5 82.5t79.5 61.5t111 22.5q91 0 145 -47t54 -141h-170q1 30 -11.5 45t-33.5 15q-54 0 -81 -106
q32 22 90 22zM183 184q0 -65 42 -65q33 0 49 36t16 75q0 67 -43 67q-37 0 -61 -24q-3 -51 -3 -89z" />
    <glyph glyph-name="uni2077" unicode="&#x2077;" horiz-adv-x="462" 
d="M36 483l22 145h413l-19 -116l-247 -512h-181l254 483h-242z" />
    <glyph glyph-name="uni2078" unicode="&#x2078;" horiz-adv-x="525" 
d="M362 335q92 -56 92 -142q0 -24 -6 -48t-23 -51.5t-42.5 -48t-69 -34t-98.5 -13.5q-42 0 -81 9t-74 27.5t-56 52.5t-21 79q0 51 34.5 93.5t108.5 57.5q-34 25 -54.5 62.5t-20.5 77.5q0 27 9.5 55.5t31.5 59.5t67 50.5t107 19.5q27 0 54 -3.5t57.5 -14t53.5 -27t38.5 -45.5
t15.5 -66q0 -107 -123 -151zM160 186q0 -55 52 -55q35 0 50.5 22.5t15.5 49.5q0 41 -51 65l-7 3q-60 -28 -60 -85zM220 457q0 -52 51 -76l2 -2q46 28 46 89q0 53 -44 53q-22 0 -35.5 -12.5t-16.5 -25.5t-3 -26z" />
    <glyph glyph-name="uni2079" unicode="&#x2079;" horiz-adv-x="527" 
d="M258 642q27 0 52.5 -5.5t55 -22t51.5 -42t36.5 -70.5t14.5 -103q0 -30 -1.5 -58.5t-8.5 -71.5t-18.5 -79.5t-33.5 -75.5t-51 -66t-74.5 -44.5t-101.5 -17.5q-29 0 -58.5 10t-59 31t-48 63t-18.5 98h165q-7 -72 40 -72q67 0 94 140q-43 -32 -96 -32q-26 0 -52 7
t-54.5 24.5t-46.5 56.5t-18 94q0 26 5.5 54.5t21 62t40 59t67.5 43t97 17.5zM201 422q0 -67 46 -67q35 0 60 36q0 74 -12.5 98.5t-35.5 24.5q-58 0 -58 -92z" />
    <glyph glyph-name="uni2080" unicode="&#x2080;" horiz-adv-x="581" 
d="M343 809q-99 0 -158.5 60.5t-59.5 195.5q0 33 4.5 71t15.5 85t32 88.5t50 77t74 56.5t100 21q100 0 160 -60.5t60 -196.5q0 -41 -6.5 -87t-25 -103.5t-48 -102t-81 -75t-117.5 -30.5zM300 1038q0 -77 41 -77q28 0 49.5 27.5t32.5 71.5t16.5 88t5.5 86q0 78 -47 78
q-26 0 -46 -30t-30.5 -75t-16 -89t-5.5 -80z" />
    <glyph glyph-name="uni2081" unicode="&#x2081;" horiz-adv-x="390" 
d="M125 1208l25 164l302 79l-111 -628h-172l75 409z" />
    <glyph glyph-name="uni2082" unicode="&#x2082;" horiz-adv-x="496" 
d="M72 947q86 58 126 86t87 65.5t65 60.5t30.5 51.5t12.5 59.5t-12 41t-31 10q-31 0 -42 -28t-9 -88h-168q0 128 60 190t164 62q212 0 212 -162q0 -58 -17 -103.5t-57 -86t-83 -71t-118 -75.5h220l-20 -143h-439z" />
    <glyph glyph-name="uni2083" unicode="&#x2083;" horiz-adv-x="498" 
d="M299 795q-49 0 -89 10t-73.5 32.5t-48.5 64.5t-8 100l178 22q-7 -54 3.5 -73t32.5 -19q31 0 43.5 19.5t12.5 58.5q0 28 -11.5 40.5t-39.5 12.5h-26l22 140h26q41 0 57 17.5t16 54.5q0 41 -39 41q-25 0 -36 -14t-15 -54l-174 17q13 186 228 186q40 0 70.5 -4.5t67 -18
t57 -45.5t20.5 -81q0 -66 -38.5 -114.5t-101.5 -55.5q94 -16 94 -128q0 -99 -58.5 -154t-169.5 -55z" />
    <glyph glyph-name="uni2084" unicode="&#x2084;" horiz-adv-x="515" 
d="M323 1080l32 147h157l-20 -147h75l-21 -133h-75l-22 -124h-171l24 124h-232l20 128l272 376h121l-263 -371h103z" />
    <glyph glyph-name="uni2085" unicode="&#x2085;" horiz-adv-x="527" 
d="M270 802q-228 0 -186 202h182q-8 -33 -0.5 -47.5t31.5 -14.5q23 0 36 19t24 66q9 42 2.5 60.5t-30.5 18.5q-31 0 -49 -21h-167l76 359h407l-33 -152h-247l-19 -89q48 45 126 45q163 0 120 -214q-25 -120 -91 -176t-182 -56z" />
    <glyph glyph-name="uni2086" unicode="&#x2086;" horiz-adv-x="537" 
d="M399 1241q171 0 171 -195q0 -33 -6 -64.5t-22 -66t-41 -60t-67 -42t-96 -16.5q-32 0 -58 3.5t-58 17t-54 36.5t-37 66.5t-15 103.5q0 38 4 76.5t13.5 90t30.5 95.5t51.5 82.5t79.5 61t111 22.5q88 0 146 -53.5t54 -137.5h-171q3 63 -44 63q-56 0 -82 -105q32 22 90 22z
M285 995q0 -65 43 -65q33 0 49 36t16 75q0 67 -43 67q-38 0 -62 -24q-3 -51 -3 -89z" />
    <glyph glyph-name="uni2087" unicode="&#x2087;" horiz-adv-x="462" 
d="M138 1306l22 145h413l-18 -116l-248 -512h-181l255 483h-243z" />
    <glyph glyph-name="uni2088" unicode="&#x2088;" horiz-adv-x="518" 
d="M464 1152q92 -56 92 -142q0 -31 -11 -61.5t-35.5 -62t-74.5 -51t-118 -19.5q-93 0 -162.5 40.5t-69.5 126.5q0 51 35 94t109 58q-34 25 -54.5 62.5t-20.5 77.5q0 27 9.5 55.5t31.5 59t67 50t107 19.5q35 0 68.5 -6.5t69.5 -22t58 -48t22 -78.5q0 -108 -123 -152z
M263 1004q0 -55 51 -55q35 0 51 23t16 49q0 40 -52 64l-6 4q-60 -28 -60 -85zM323 1275q0 -53 51 -77l1 -2q47 29 47 89q0 53 -45 53q-54 0 -54 -63z" />
    <glyph glyph-name="uni2089" unicode="&#x2089;" horiz-adv-x="525" 
d="M360 1459q34 0 66.5 -10t67 -34t55.5 -75t21 -123q0 -30 -1.5 -58.5t-8.5 -71.5t-18 -79.5t-33 -75.5t-51.5 -66t-74.5 -44.5t-101 -17.5q-29 0 -61.5 11.5t-64 33.5t-49 63t-10.5 93h166q-7 -71 39 -71q67 0 94 139q-43 -32 -96 -32q-26 0 -51.5 7t-54.5 25t-46.5 57
t-17.5 94q0 34 10 70t33 75.5t71.5 64.5t115.5 25zM304 1239q0 -67 46 -67q35 0 60 36q0 74 -12.5 98.5t-35.5 24.5q-58 0 -58 -92z" />
    <glyph glyph-name="Euro" unicode="&#x20ac;" horiz-adv-x="1047" 
d="M457 737h331l-51 -220h-327q-9 -25 -16 -72t-7 -78t10.5 -53.5t24.5 -34t33.5 -18t31 -7.5t23.5 -1q86 0 127 46l44 51l172 -181l-32 -29q-156 -140 -364 -140q-115 0 -201.5 52.5t-127.5 132t-41 170.5q0 69 22 162h-129l51 220h123l22 106h-130l50 220h128l12 55
q94 435 552 435q82 0 158 -32.5t122 -85.5l-230 -193q-34 50 -102 50q-66 0 -118.5 -47t-71.5 -112l-20 -70h332l-46 -220h-334z" />
    <glyph glyph-name="arrowleft" unicode="&#x2190;" horiz-adv-x="1211" 
d="M423 469l132 -170l-207 -171l-341 469l541 470l133 -171l-203 -171h652l-55 -256h-652z" />
    <glyph glyph-name="arrowup" unicode="&#x2191;" horiz-adv-x="1211" 
d="M258 538l-135 169l563 442l376 -442l-207 -169l-135 167l-138 -652h-256l138 652z" />
    <glyph glyph-name="arrowright" unicode="&#x2192;" horiz-adv-x="1293" 
d="M792 725l-132 171l207 171l341 -470l-541 -469l-133 171l203 170h-652l55 256h652z" />
    <glyph glyph-name="arrowdown" unicode="&#x2193;" horiz-adv-x="1211" 
d="M558 1142h256l-140 -652l207 167l134 -169l-563 -442l-375 442l206 169l135 -167z" />
    <glyph glyph-name="uni2196" unicode="&#x2196;" horiz-adv-x="1211" 
d="M391 582l-53 -241h-241l157 644l649 20l-53 -242h-241l366 -463l-221 -181z" />
    <glyph glyph-name="uni2199" unicode="&#x2199;" horiz-adv-x="1211" 
d="M780 432l-51 -243l-640 21l118 643h238l-47 -240l559 462l144 -181l-562 -462h241z" />
    <glyph glyph-name="product" unicode="&#x220f;" horiz-adv-x="1129" 
d="M497 0l268 1263h-294l-268 -1263h-297l326 1536h888l-326 -1536h-297z" />
    <glyph glyph-name="summation" unicode="&#x2211;" horiz-adv-x="967" 
d="M490 1256l246 -490l-453 -486h482l-62 -280h-843l61 280l453 486l-246 490l61 280h844l-62 -280h-481z" />
    <glyph glyph-name="minus" unicode="&#x2212;" horiz-adv-x="1211" 
d="M138 456l55 239h785l-55 -239h-785z" />
    <glyph glyph-name="radical" unicode="&#x221a;" horiz-adv-x="1095" 
d="M169 0l-80 568h-162l59 273h371l46 -365l500 1060h307l-742 -1536h-299z" />
    <glyph glyph-name="approxequal" unicode="&#x2248;" horiz-adv-x="1088" 
d="M97 225q61 270 244 270q40 0 82.5 -18.5t76.5 -37.5t55 -19t32.5 10t18.5 41l5 21h206l-5 -23q-65 -266 -242 -266q-40 0 -82 18.5t-76 37.5t-55 19q-41 0 -53 -54l-4 -17h-206zM181 618q20 131 84.5 198.5t157.5 67.5q40 0 82.5 -19t76.5 -37.5t55 -18.5t33.5 12
t18.5 43l4 17h206l-3 -16q-64 -273 -244 -273q-40 0 -82 19t-76 37.5t-55 18.5q-46 0 -53 -56l-2 -15h-207z" />
    <glyph glyph-name="notequal" unicode="&#x2260;" horiz-adv-x="1211" 
d="M621 481h316l-55 -239h-406l-107 -177h-202l108 177h-178l55 239h268l73 120h-316l55 239h413l101 177h201l-100 -177h170l-54 -239h-268z" />
    <glyph glyph-name="lessequal" unicode="&#x2264;" horiz-adv-x="1211" 
d="M561 683l395 -115l-57 -263l-730 255l53 246l838 254l-55 -263zM104 239h785l-54 -239h-786z" />
    <glyph glyph-name="greaterequal" unicode="&#x2265;" horiz-adv-x="1211" 
d="M954 560l-840 -255l57 263l442 115l-393 114l55 263l732 -254zM104 239h785l-54 -239h-786z" />
    <glyph glyph-name="lozenge" unicode="&#x25ca;" horiz-adv-x="1140" 
d="M524 0h-236l-300 597l555 598h235l302 -598zM468 285l290 312l-157 313l-290 -313z" />
    <glyph glyph-name="uniF8FF" unicode="&#xf8ff;" horiz-adv-x="1976" 
d="M1377 882q2 1 13.5 0.5t16.5 -1.5q18 -5 29.5 -1.5t3.5 21.5q-1 3 -34 -2t-60.5 -8.5t-33.5 2.5q0 5 9 17.5t35 32t62 33.5q-32 -6 -65 -8.5t-49 -1.5h-17l61 32q12 4 -1 17q-2 1 -28 -8t-41 -17q-13 -8 -26 1t-13 18q0 4 16.5 22.5t32.5 35.5l16 17l17 19l-99 -64
q-12 2 -20 9t-10 13l-1 6q4 15 9 24q1 3 8.5 24t13.5 39t5 18q-2 1 -14 -7.5t-26.5 -21.5t-20.5 -22q-8 -12 -25.5 -8.5t-24.5 15.5q-4 6 -2.5 20t4 22.5t-1.5 10.5q-5 -1 -17.5 -9t-22.5 -16l-9 -7q-23 -11 -36.5 -9t-20.5 9t-9 17t-2 15t-1 3q-2 -5 -9.5 -12t-14.5 -11
l-6 -4q-13 8 -20 44l-8 36q-1 3 -3.5 5t-4.5 2h-2q-8 -17 -2.5 -54.5t4.5 -39.5q-11 -10 -30 -9.5t-28 4.5l-36 33q4 -33 -37 -73t-62 -21q-85 75 -65 42q12 -18 43 -53q9 -14 7 -23.5t-9 -15.5l-7 -5q-21 5 -22.5 2.5t2.5 -11.5t0 -11q-4 -3 -14.5 -19.5t-18.5 -23.5
q-10 -6 -21 -5t-27 5.5t-18 4.5l17 -21q15 -17 19 -20q2 -2 -11 1q-8 3 -33 11q-46 15 -50 14q-3 0 -5.5 -3t-3.5 -5v-3l94 -44q7 -27 -33.5 -41t-108.5 -10q53 -11 99 -39q24 -14 31.5 -26.5t1.5 -20t-15 -13t-19 -7.5l-9 -2l38 -29q-53 -10 -60 -10l9 -10q61 -7 68 -10
q4 -1 -1 -10t-11 -17l-7 -9q45 -12 50 -19q2 -2 -17 -13q-16 -10 -62 -33q-49 -24 -49 -26q0 -5 -0.5 -7.5t1 -4.5t2 -3t2.5 -2.5t3 -2.5l73 44l48 22q7 2 7 -1q0 -5 -8.5 -18.5t-14 -25t-1.5 -13.5q6 -1 20.5 6t26.5 15l11 8q24 -5 24 -25q0 -9 -6.5 -29.5t-12.5 -36.5
l-7 -16q23 24 37 37t23 18.5t13 4.5t8 -7q5 -8 7.5 -15t2.5 -10v-4q3 -2 4.5 -5t2 -6.5t0.5 -7.5t-0.5 -7.5t-1 -7.5t-1 -7t-0.5 -5t1 -3t3 -1q6 2 24.5 16t22.5 18q6 4 29 -15q6 -5 10.5 -24t5.5 -35l2 -16q25 47 47.5 64.5t37.5 8.5t26 -24t16 -31l5 -16l22 63q1 1 0 -4
q-1 -9 5.5 -33.5t14 -45t9.5 -20.5q3 0 5 3t2 6l1 3q-8 69 -1 95t24.5 20.5t35.5 -22.5t32 -36l14 -19l-12 94q0 2 0.5 4.5t3.5 7t9 -1.5l53 -55q-1 5 -3 13t-7 29t-5 28t2 12q6 -2 35.5 -46t34.5 -44q4 -1 7.5 1.5t4.5 5.5l1 3q1 2 -15 23.5t-35 47.5t-23 35q-3 11 1 19.5
t10 11.5l6 3q1 -1 2.5 -2t6 -3.5t8.5 -5t9 -6t9.5 -5.5t8 -3t4.5 -1q4 1 0 15.5t-10 29.5l-7 14q9 18 27 13q7 -1 36.5 -32.5t36.5 -42.5q6 -5 12 -4.5t11 3.5l6 3q0 9 -23 33.5t-45 46t-20 24.5q3 2 13 1t21 -3l12 -2q-22 22 -32 33t-15 18.5t-5 9.5t1 8t1 13q-1 15 33 20
l30 3q26 3 26 6q-3 5 -52 19q-28 9 -28 16q0 3 6 6q19 13 18 17q-9 8 -15 14.5t-7 11.5t-2 8.5t4 6.5l7.5 4.5t10.5 3t10.5 2t12.5 1.5zM1891 876q0 -2 -6 -9t-12 -13l-6 -6q13 -17 -22 -44t-62 -34q-10 -3 -19.5 -10t-14.5 -12l-5 -6q12 -15 72 -56q11 -7 21 -20t15 -23
t3 -12q-7 -9 -18 -16.5t-19 -10.5l-7 -3q-12 -18 -57.5 -30t-85.5 -15l-40 -3q55 -42 104 -104.5t40 -98.5q-2 -2 -24 -12q-27 -13 -61.5 -14t-66 6t-66 20t-57 24.5t-43.5 23.5t-22 12l-22 5q2 -5 5.5 -14t13 -35.5t18 -50.5t19 -55t17.5 -54t10.5 -41.5t1.5 -24.5
q-2 -1 -12.5 -0.5t-27 4t-25.5 8.5q-55 30 -99 70t-65 67t-25 28q-19 7 -18 -1l2 -4q17 -4 31.5 -79.5t4.5 -138.5q-5 -26 -12 -50t-14 -41t-13.5 -29.5t-11.5 -18.5t-7 -4q-8 7 -43.5 51t-67.5 85l-32 41q-4 -33 -11.5 -62.5t-13 -44t-14.5 -35t-12 -27.5q-3 -9 -7.5 -16
t-8 -11t-9.5 -7.5t-8.5 -4.5t-8.5 -2l-6 -2q-4 -1 -21 -35q-2 -3 -5.5 0t-6.5 8q-9 13 -28.5 85t-34.5 138l-15 65q-6 -24 -63.5 -103.5t-69.5 -88.5q-4 -1 -12 -7t-13.5 -10.5t-5.5 -3.5q-5 8 -3 19q11 66 13 188q1 64 -7 51q-37 -52 -76 -82q-9 -7 -30 -25.5t-34 -28.5
t-13 -6t-10.5 9t-10.5 13l-5 77q-16 66 23 164l3 9q-4 -2 -13 -9t-22 -17t-20 -15q-25 -18 -88.5 -46.5t-104.5 -30.5q-4 0 7 25l22 50t7 26l-37 1q1 58 117 207q18 24 16 24q-15 -3 -138.5 12.5t-141.5 26.5q-15 10 -15 14q-3 0 5 8q2 3 19.5 12.5t34.5 17.5l16 8
q-112 77 -115 87q3 7 57 22t63 22q8 6 21.5 12.5t23.5 10.5l9 3q95 35 166 32q-31 5 -65 12q-42 11 -77.5 34.5t-57.5 49t-36.5 49.5t-19.5 39.5t-2 15.5l84 13q-5 4 -38 58t-34 62q0 2 21.5 3t43.5 1l22 -1q-7 31 -15 50q-5 14 217 -26q-24 39 -70 126.5t-46 93.5
q5 2 27.5 2t63 -9t66.5 -23q23 -12 43 -24t28 -18l9 -6q-7 38 3.5 101t24.5 107.5t16 42.5l92 -81q8 18 17 69q3 19 5 37t2.5 24.5t1.5 6.5q6 6 72 -60q98 -52 136 -203q8 57 35 102t54 66t56.5 40.5t35.5 27.5q8 8 16 13t11.5 6.5t3.5 2.5q2 0 6.5 -5.5t5.5 -11.5l12 -50
q10 -20 11.5 -61t-2.5 -72l-3 -31q58 61 112 94.5t76.5 38.5t28.5 2q2 -1 -1 -37.5t-7 -72.5l-4 -36q45 28 86 54q53 37 64 39h9q1 0 2 -6.5t0 -24t-5 -40.5q-21 -135 -130 -244q21 12 40.5 16.5t33.5 4.5l15 1q134 22 157 36q15 9 32 15t25.5 7t12.5 0q2 -1 -16 -51
q-15 -47 -36.5 -84.5t-39.5 -57.5t-40 -35t-30 -18.5t-18 -7.5q-41 -15 -73 -24l65 5q34 1 66.5 -2.5t58 -9.5t50.5 -16t41.5 -18t34.5 -20t27 -18.5t20 -16t13 -10.5q4 -4 9.5 -7t8 -5t2.5 -3z" />
    <glyph glyph-name="uni006A0301" horiz-adv-x="486" 
d="M200 -7q-32 -151 -159.5 -257t-274.5 -106q-99 0 -126 8l51 236h89q41 0 77.5 31t45.5 73l257 1217h296zM741 1638l-313 -291h-274l254 291h333z" />
    <glyph glyph-name="i.loclTRK" horiz-adv-x="537" 
d="M364 1359q-53 0 -85.5 32t-32.5 80q0 68 54.5 121t124.5 53q53 0 83.5 -34t30.5 -82q0 -67 -54.5 -118.5t-120.5 -51.5zM208 1195h287l-254 -1195h-287z" />
    <glyph glyph-name="a.ss01" horiz-adv-x="952" 
d="M957 1195l-254 -1195h-240l29 135q-52 -77 -124 -119t-151 -42q-115 0 -190 75.5t-75 184.5q0 28 9 71l109 507q19 91 47 160t72 127.5t110 89.5t152 31q78 0 125 -41.5t55 -101.5l26 118h300zM270 324q-2 -7 -2 -22q0 -35 22.5 -56.5t59.5 -21.5q43 0 79 29t45 71
l113 545q4 10 4 22q0 36 -23 59t-61 23q-44 0 -80 -29.5t-45 -74.5z" />
    <glyph glyph-name="f_b" horiz-adv-x="1667" 
d="M717 949h-227l-203 -949h-301l203 949h-116l53 249h116l24 104q22 98 105 166t180 68h714l-99 -459q35 60 99.5 99t142.5 39q69 0 117 -20.5t73.5 -56t34.5 -88t4.5 -110t-19.5 -128.5l-109 -507q-29 -136 -145.5 -234t-247.5 -91q-80 2 -135.5 41t-74.5 114l-29 -135
h-240l278 1302h-299q-23 0 -39 -13.5t-21 -34.5l-13 -56h227zM1009 333q-9 -42 14 -71.5t66 -29.5t79 29.5t45 71.5l113 532q10 45 -13 74.5t-67 29.5t-79.5 -29.5t-45.5 -74.5z" />
    <glyph glyph-name="f_f_I" horiz-adv-x="1901" 
d="M1439 949h-227l-203 -949h-301l203 949h-421l-203 -949h-301l203 949h-116l53 249h116l24 104q22 98 105 166t180 68h289l-50 -234h-174q-23 0 -39 -13.5t-21 -34.5l-13 -56h421l24 104q22 98 105 166t180 68h707l-328 -1536h-297l278 1302h-295q-23 0 -39 -13.5
t-21 -34.5l-13 -56h227z" />
    <glyph glyph-name="f_f_b" horiz-adv-x="2379" 
d="M1428 949h-227l-203 -949h-300l203 949h-411l-203 -949h-301l203 949h-116l53 249h116l24 118q19 97 103 165.5t182 68.5h289l-50 -234h-174q-23 0 -39.5 -13.5t-20.5 -34.5l-13 -70h411l24 104q22 98 105 166t180 68h713l-99 -459q35 60 100 99t143 39q69 0 117 -20.5
t73.5 -56t34.5 -88t4.5 -110t-19.5 -128.5l-110 -507q-29 -136 -145 -234t-247 -91q-80 2 -135.5 41t-74.5 114l-29 -135h-241l278 1302h-298q-23 0 -39 -13.5t-21 -34.5l-14 -56h227zM1720 333q-9 -42 14.5 -71.5t66.5 -29.5t79 29.5t45 71.5l113 532q10 45 -13 74.5
t-67 29.5t-79.5 -29.5t-45.5 -74.5z" />
    <glyph glyph-name="f_f_h" horiz-adv-x="2372" 
d="M1428 949h-227l-203 -949h-300l203 949h-411l-203 -949h-301l203 949h-116l53 249h116l24 118q19 97 103 165.5t182 68.5h289l-50 -234h-174q-23 0 -39.5 -13.5t-20.5 -34.5l-13 -70h411l24 118q19 97 103 165.5t182 68.5h722l-106 -488q14 26 35 51t55 52t83.5 43.5
t106.5 16.5q71 0 116 -26.5t62.5 -74t17.5 -104.5t-15 -127l-191 -893h-301l185 865q9 43 -15 73.5t-66 30.5t-77.5 -30.5t-44.5 -73.5l-185 -865h-297l284 1316h-304q-23 0 -39.5 -13.5t-20.5 -34.5l-14 -70h227z" />
    <glyph glyph-name="f_f_j" horiz-adv-x="1860" 
d="M1623 -3q-32 -151 -159 -257.5t-274 -106.5q-96 0 -127 9l51 235h89q41 0 77.5 31t45.5 73l205 968h-330l-203 -949h-300l203 949h-411l-203 -949h-301l203 949h-116l53 249h116l24 118q19 97 103 165.5t182 68.5h289l-50 -234h-174q-23 0 -39.5 -13.5t-20.5 -34.5
l-13 -70h411l24 118q19 97 103 165.5t182 68.5h288l-49 -234h-174q-23 0 -39.5 -13.5t-20.5 -34.5l-14 -70h625zM1751 1329q-58 0 -94 35.5t-36 89.5q0 74 60 132.5t138 58.5q58 0 92.5 -38t34.5 -93q0 -71 -61 -128t-134 -57z" />
    <glyph glyph-name="f_f_k" horiz-adv-x="2380" 
d="M1428 949h-227l-203 -949h-300l203 949h-411l-203 -949h-301l203 949h-116l53 249h116l24 118q19 97 103 165.5t182 68.5h289l-50 -234h-174q-23 0 -39.5 -13.5t-20.5 -34.5l-13 -70h411l24 118q19 97 103 165.5t182 68.5h717l-186 -867l363 512h306l-395 -560l88 -635
h-318l-37 343l-106 -131l-46 -212h-301l280 1316h-300q-23 0 -39.5 -13.5t-20.5 -34.5l-14 -70h227z" />
    <glyph glyph-name="f_f_t" horiz-adv-x="2210" 
d="M1840 326q-7 -28 9 -47.5t44 -19.5h167l-56 -259h-291q-100 0 -154.5 70t-34.5 171l147 708h-459l-203 -949h-301l203 949h-421l-203 -949h-301l203 949h-116l53 249h116l24 118q19 97 103 165.5t182 68.5h289l-50 -234h-174q-23 0 -39.5 -13.5t-20.5 -34.5l-13 -70h421
l24 118q19 97 103 165.5t182 68.5h289l-50 -234h-174q-23 0 -39.5 -13.5t-20.5 -34.5l-13 -70h462l46 213h297l-46 -216h193l-56 -246h-193z" />
    <glyph glyph-name="f_h" horiz-adv-x="1660" 
d="M717 949h-227l-203 -949h-301l203 949h-116l53 249h116l24 118q19 97 103 165.5t182 68.5h722l-106 -488q14 26 35 51t55 52t83.5 43.5t106.5 16.5q71 0 116 -26.5t62.5 -74t17.5 -104.5t-15 -127l-191 -893h-300l184 865q9 43 -14.5 73.5t-65.5 30.5t-78 -30.5
t-45 -73.5l-184 -865h-297l283 1316h-304q-23 0 -39.5 -13.5t-20.5 -34.5l-13 -70h227z" />
    <glyph glyph-name="f_j" horiz-adv-x="1148" 
d="M911 -3q-32 -151 -159 -257.5t-274 -106.5q-95 0 -126 9l51 235h89q41 0 77 31t45 73l205 968h-329l-203 -949h-301l203 949h-116l53 249h116l24 118q19 97 103 165.5t182 68.5h289l-50 -234h-174q-23 0 -39.5 -13.5t-20.5 -34.5l-13 -70h624zM1046 1329q-58 0 -94 35.5
t-36 89.5q0 74 60 132.5t138 58.5q58 0 92.5 -38t34.5 -93q0 -71 -61 -128t-134 -57z" />
    <glyph glyph-name="f_k" horiz-adv-x="1669" 
d="M717 949h-227l-203 -949h-301l203 949h-116l53 249h116l24 118q19 97 103 165.5t182 68.5h717l-186 -867l364 512h305l-394 -560l87 -635h-318l-37 343l-106 -131l-46 -212h-300l279 1316h-300q-23 0 -39.5 -13.5t-20.5 -34.5l-13 -70h227z" />
    <glyph glyph-name="f_t" horiz-adv-x="1488" 
d="M1118 326q-7 -28 9 -47.5t44 -19.5h167l-56 -259h-290q-100 0 -155 70t-35 171l147 708h-459l-203 -949h-301l203 949h-114l53 249h114l24 118q19 97 103 165.5t182 68.5h289l-50 -234h-174q-23 0 -39.5 -13.5t-20.5 -34.5l-13 -70h462l46 213h297l-46 -216h193l-56 -246
h-193z" />
    <glyph glyph-name="t_f" horiz-adv-x="1481" 
d="M1487 940h-227l-204 -940h-300l203 940h-435l-128 -614q-7 -28 9 -47.5t44 -19.5h167l-56 -259h-290q-100 0 -155 70t-35 171l147 699h-159l57 256h158l46 215h297l-46 -215h432l24 120q19 97 103 165.5t182 68.5h288l-49 -234h-174q-23 0 -39.5 -13.5t-20.5 -34.5
l-14 -72h227z" />
    <glyph glyph-name="t_t" horiz-adv-x="1536" 
d="M396 326q-7 -28 9 -47.5t44 -19.5h167l-56 -259h-290q-100 0 -155 70t-35 171l147 689h-159l57 265h158l46 216h297l-46 -216h473l46 216h297l-46 -216h193l-56 -265h-193l-128 -604q-7 -28 9 -47.5t44 -19.5h167l-57 -259h-290q-100 0 -154.5 70t-34.5 171l147 689h-473
z" />
    <glyph glyph-name="zero.dnom" horiz-adv-x="607" 
d="M213 -14q-136 0 -173 72t3 256q38 184 106 256t204 72q135 0 172.5 -72t-1.5 -256q-40 -185 -107.5 -256.5t-203.5 -71.5zM225 314q-22 -104 -17.5 -144t36.5 -40q33 0 54 40t43 144t18.5 144t-36.5 40t-54.5 -40.5t-43.5 -143.5z" />
    <glyph glyph-name="one.dnom" horiz-adv-x="390" 
d="M22 386l26 164l302 78l-111 -628h-172l73 410z" />
    <glyph glyph-name="two.dnom" horiz-adv-x="498" 
d="M-31 131q86 58 126 86t87 65.5t65 60.5t30.5 51.5t12.5 59.5t-12 41t-31 10q-28 0 -39.5 -22t-11.5 -68v-26h-167q0 21 2 31q12 222 222 222q211 0 211 -162q0 -58 -17 -104t-57 -86.5t-83 -71t-118 -75.5h221l-21 -143h-438z" />
    <glyph glyph-name="three.dnom" horiz-adv-x="498" 
d="M196 -14q-50 0 -89.5 10t-72.5 33.5t-48 68t-8 107.5h177q-12 -82 36 -82q31 0 43.5 19.5t12.5 58.5q0 28 -11.5 40.5t-39.5 12.5h-25l22 140h25q42 0 58 17.5t16 54.5q0 41 -39 41q-25 0 -36.5 -13t-15.5 -47h-174q13 195 229 195q40 0 70.5 -4.5t67 -18t57 -45.5
t20.5 -81q0 -66 -38.5 -114.5t-101.5 -55.5q94 -16 94 -128q0 -99 -59 -154t-170 -55z" />
    <glyph glyph-name="four.dnom" horiz-adv-x="515" 
d="M220 258l36 160h160l-27 -160h75l-20 -133h-75l-23 -125h-170l24 125h-232l20 128l271 375h130l-271 -370h102z" />
    <glyph glyph-name="five.dnom" horiz-adv-x="525" 
d="M167 -14q-107 0 -156 57t-30 145h183q-7 -33 0 -47.5t31 -14.5q23 0 35.5 19t23.5 67q9 42 3 60t-30 18q-31 0 -51 -29h-156l79 367h394l-32 -152h-248l-18 -89q50 45 126 45q165 0 119 -214q-25 -120 -91 -176t-182 -56z" />
    <glyph glyph-name="six.dnom" horiz-adv-x="537" 
d="M297 430q171 0 171 -194q0 -42 -10.5 -81.5t-34.5 -79.5t-72 -64.5t-115 -24.5q-32 0 -58 3.5t-58 17t-54 36.5t-37 66.5t-15 103.5q0 38 4 76.5t13.5 90.5t30.5 95.5t51.5 82.5t79.5 61.5t111 22.5q91 0 145 -47t54 -141h-170q1 30 -11.5 45t-33.5 15q-54 0 -81 -106
q32 22 90 22zM183 184q0 -65 42 -65q33 0 49 36t16 75q0 67 -43 67q-37 0 -61 -24q-3 -51 -3 -89z" />
    <glyph glyph-name="seven.dnom" horiz-adv-x="462" 
d="M36 483l22 145h413l-19 -116l-247 -512h-181l254 483h-242z" />
    <glyph glyph-name="eight.dnom" horiz-adv-x="525" 
d="M362 335q92 -56 92 -142q0 -24 -6 -48t-23 -51.5t-42.5 -48t-69 -34t-98.5 -13.5q-42 0 -81 9t-74 27.5t-56 52.5t-21 79q0 51 34.5 93.5t108.5 57.5q-34 25 -54.5 62.5t-20.5 77.5q0 27 9.5 55.5t31.5 59.5t67 50.5t107 19.5q27 0 54 -3.5t57.5 -14t53.5 -27t38.5 -45.5
t15.5 -66q0 -107 -123 -151zM160 186q0 -55 52 -55q35 0 50.5 22.5t15.5 49.5q0 41 -51 65l-7 3q-60 -28 -60 -85zM220 457q0 -52 51 -76l2 -2q46 28 46 89q0 53 -44 53q-22 0 -35.5 -12.5t-16.5 -25.5t-3 -26z" />
    <glyph glyph-name="nine.dnom" horiz-adv-x="527" 
d="M258 642q27 0 52.5 -5.5t55 -22t51.5 -42t36.5 -70.5t14.5 -103q0 -30 -1.5 -58.5t-8.5 -71.5t-18.5 -79.5t-33.5 -75.5t-51 -66t-74.5 -44.5t-101.5 -17.5q-29 0 -58.5 10t-59 31t-48 63t-18.5 98h165q-7 -72 40 -72q67 0 94 140q-43 -32 -96 -32q-26 0 -52 7
t-54.5 24.5t-46.5 56.5t-18 94q0 26 5.5 54.5t21 62t40 59t67.5 43t97 17.5zM201 422q0 -67 46 -67q35 0 60 36q0 74 -12.5 98.5t-35.5 24.5q-58 0 -58 -92z" />
    <glyph glyph-name="zero.numr" horiz-adv-x="581" 
d="M343 570q-99 0 -158.5 60.5t-59.5 195.5q0 33 4.5 71t15.5 85t32 88.5t50 77t74 56.5t100 21q100 0 160 -60.5t60 -196.5q0 -41 -6.5 -87t-25 -103.5t-48 -102t-81 -75t-117.5 -30.5zM300 799q0 -77 41 -77q28 0 49.5 27.5t32.5 71.5t16.5 88t5.5 86q0 78 -47 78
q-26 0 -46 -30t-30.5 -75t-16 -89t-5.5 -80z" />
    <glyph glyph-name="one.numr" horiz-adv-x="390" 
d="M125 969l25 164l302 79l-111 -628h-172l75 409z" />
    <glyph glyph-name="two.numr" horiz-adv-x="496" 
d="M72 715q86 58 126 86t87 65.5t65 60.5t30.5 51.5t12.5 59.5t-12 41t-31 10q-31 0 -42 -28t-9 -88h-168q0 128 60 190t164 62q212 0 212 -162q0 -58 -17 -103.5t-57 -86t-83 -71t-118 -75.5h220l-20 -143h-439z" />
    <glyph glyph-name="three.numr" horiz-adv-x="498" 
d="M299 570q-49 0 -89 10t-73.5 32.5t-48.5 64.5t-8 100l178 22q-7 -54 3.5 -73t32.5 -19q31 0 43.5 19.5t12.5 58.5q0 28 -11.5 40.5t-39.5 12.5h-26l22 140h26q41 0 57 17.5t16 54.5q0 41 -39 41q-25 0 -36 -14.5t-15 -54.5l-174 17q13 186 228 186q31 0 55 -2t56 -10.5
t53 -23.5t36 -44t15 -68q0 -66 -38.5 -115t-101.5 -56q94 -16 94 -128q0 -99 -58.5 -153.5t-169.5 -54.5z" />
    <glyph glyph-name="four.numr" horiz-adv-x="515" 
d="M323 841l32 147h157l-20 -147h75l-21 -133h-75l-22 -124h-171l24 124h-232l20 128l272 376h121l-263 -371h103z" />
    <glyph glyph-name="five.numr" horiz-adv-x="527" 
d="M270 570q-228 0 -186 201h182q-7 -33 0 -47t31 -14q23 0 36 19t24 66q9 42 2.5 60.5t-30.5 18.5q-31 0 -49 -21h-167l76 359h407l-33 -152h-247l-19 -89q47 44 126 44q163 0 120 -213q-25 -120 -91 -176t-182 -56z" />
    <glyph glyph-name="six.numr" horiz-adv-x="537" 
d="M399 1014q171 0 171 -195q0 -33 -6 -64.5t-22 -66t-41 -60t-67 -42t-96 -16.5q-32 0 -58 3.5t-58 17t-54 36.5t-37 66.5t-15 103.5q0 38 4 76.5t13.5 90t30.5 95.5t51.5 82.5t79.5 61t111 22.5q88 0 146 -53.5t54 -137.5h-171q3 63 -44 63q-56 0 -82 -105q32 22 90 22z
M285 768q0 -65 43 -65q33 0 49 36t16 75q0 67 -43 67q-38 0 -62 -24q-3 -51 -3 -89z" />
    <glyph glyph-name="seven.numr" horiz-adv-x="462" 
d="M138 1067l22 145h413l-18 -116l-248 -512h-181l255 483h-243z" />
    <glyph glyph-name="eight.numr" horiz-adv-x="518" 
d="M464 918q92 -56 92 -141q0 -24 -6 -48t-23 -51.5t-42.5 -48t-69 -34t-98.5 -13.5q-93 0 -162.5 40.5t-69.5 126.5q0 51 35 94t109 58q-34 25 -54.5 62.5t-20.5 77.5q0 27 9.5 55.5t31.5 59t67 50t107 19.5q35 0 68.5 -6.5t69.5 -22t58 -48t22 -78.5q0 -108 -123 -152z
M263 770q0 -55 51 -55q35 0 51 23t16 49q0 41 -52 65l-6 3q-60 -28 -60 -85zM323 1041q0 -53 51 -77l1 -1q47 29 47 88q0 53 -45 53q-54 0 -54 -63z" />
    <glyph glyph-name="nine.numr" horiz-adv-x="525" 
d="M360 1225q34 0 66.5 -10t67 -34t55.5 -75t21 -123q0 -30 -1.5 -58.5t-8.5 -71.5t-18 -79.5t-33 -75.5t-51.5 -66t-74.5 -44.5t-101 -17.5q-29 0 -61.5 11.5t-64 33.5t-49 63t-10.5 93h166q-7 -71 39 -71q67 0 94 140q-45 -33 -96 -33q-26 0 -51.5 7t-54.5 25t-46.5 57
t-17.5 94q0 34 10 70t33 75.5t71.5 64.5t115.5 25zM304 1005q0 -66 46 -66q35 0 60 36q0 74 -12.5 98t-35.5 24q-58 0 -58 -92z" />
    <glyph glyph-name="colon.case" horiz-adv-x="510" 
d="M-17 329q19 85 79 134t143 49q86 0 124 -49t19 -134q-17 -84 -76 -133t-144 -49q-83 0 -122.5 49.5t-22.5 132.5zM99 872q18 85 78 134t144 49q85 0 123 -48.5t20 -134.5q-18 -84 -77.5 -133.5t-144.5 -49.5q-83 0 -122 50t-21 133z" />
    <glyph glyph-name="exclamdown.case" horiz-adv-x="552" 
d="M515 1036q-17 -84 -76 -133.5t-144 -49.5q-83 0 -122.5 50t-22.5 133q19 85 79 134t143 49q86 0 124 -49t19 -134zM147 768h259l-140 -768h-307z" />
    <glyph glyph-name="questiondown.case" horiz-adv-x="808" 
d="M671 1036q-17 -84 -76 -133.5t-144 -49.5q-83 0 -123 50t-23 133q19 85 79 134t143 49q86 0 124.5 -49t19.5 -134zM-77 283q15 72 61 132t141 126q111 80 127 96q21 22 30 63q0 3 1 7l14 61h270l-17 -80q-8 -42 -18.5 -67t-39.5 -60.5t-79 -76t-138 -103.5
q-67 -48 -74 -89q-7 -32 12 -49.5t60 -17.5q113 0 229 139l174 -139q-83 -116 -203.5 -182.5t-257.5 -66.5q-157 0 -239.5 84.5t-52.5 222.5z" />
    <glyph glyph-name="periodcentered.case" horiz-adv-x="501" 
d="M36 614q18 85 78 134t144 49q85 0 123 -48.5t20 -134.5q-18 -84 -77.5 -133t-144.5 -49q-83 0 -122 49.5t-21 132.5z" />
    <glyph glyph-name="bullet.case" horiz-adv-x="870" 
d="M102 608q27 126 131.5 212t230.5 86q127 0 195 -86.5t41 -211.5q-27 -126 -131.5 -212.5t-230.5 -86.5q-127 0 -195 87t-41 212z" />
    <glyph glyph-name="comma.ss01" horiz-adv-x="474" 
d="M305 254l-259 -525h-232l205 525h286z" />
    <glyph glyph-name="hyphen.case" horiz-adv-x="614" 
d="M556 732l-53 -246h-512l53 246h512z" />
    <glyph glyph-name="endash.case" horiz-adv-x="955" 
d="M896 729l-51 -239h-854l52 239h853z" />
    <glyph glyph-name="emdash.case" horiz-adv-x="1810" 
d="M1751 729l-51 -239h-1709l52 239h1708z" />
    <glyph glyph-name="parenleft.case" horiz-adv-x="617" 
d="M58 666q41 196 157 398.5t273 350.5l195 -130q-124 -124 -214.5 -289.5t-125.5 -329.5q-36 -162 -16 -329.5t93 -290.5l-251 -130q-95 151 -124.5 354t13.5 396z" />
    <glyph glyph-name="parenright.case" horiz-adv-x="617" 
d="M488 683q-42 -199 -157.5 -399.5t-274.5 -350.5l-193 130q125 125 215.5 292.5t124.5 327.5q34 158 13.5 327.5t-90.5 291.5l249 130q95 -149 125 -353.5t-12 -395.5z" />
    <glyph glyph-name="braceleft.case" horiz-adv-x="663" 
d="M456 898q-21 -101 -74.5 -156.5t-144.5 -75.5q83 -20 112.5 -75.5t7.5 -157.5l-33 -148q-11 -53 7 -75t72 -22h71l-52 -253h-171q-152 0 -203.5 61.5t-20.5 203.5l50 233q11 56 -9.5 81t-77.5 25h-10l52 253h11q57 0 88.5 25t44.5 81l49 234q29 142 106.5 203t229.5 61
h171l-54 -253h-72q-54 0 -81.5 -22t-38.5 -75z" />
    <glyph glyph-name="braceright.case" horiz-adv-x="663" 
d="M548 539q-57 0 -89 -25t-43 -81l-49 -233q-31 -143 -108 -204t-228 -61h-171l53 253h72q55 0 81.5 22t37.5 75l33 148q22 102 75 157.5t143 75.5q-83 20 -112 75t-7 157l30 148q11 53 -6.5 75t-71.5 22h-72l55 253h170q152 0 202.5 -61t21.5 -203l-50 -234q-13 -56 8 -81
t78 -25h10l-53 -253h-10z" />
    <glyph glyph-name="bracketleft.case" horiz-adv-x="665" 
d="M258 188h218l-53 -253h-498l311 1461h498l-55 -253h-218z" />
    <glyph glyph-name="bracketright.case" horiz-adv-x="665" 
d="M358 -65h-498l53 253h218l204 955h-219l55 253h498z" />
    <glyph glyph-name="cent.tf" horiz-adv-x="926" 
d="M234 -148l27 126q-141 7 -220.5 83.5t-79.5 196.5q0 49 8 82l103 481q41 190 155.5 290t296.5 108l27 129h67l-27 -131q279 -15 279 -270q0 -61 -15 -135l-14 -63h-278l21 103q8 35 8 59q0 62 -51 74l-160 -760q33 11 59 38.5t33 62.5l19 90h278l-21 -100
q-29 -145 -143.5 -237t-277.5 -101l-28 -126h-66zM266 300q0 -52 48 -71l160 756q-42 -10 -62.5 -44.5t-32.5 -93.5l-111 -521q-2 -9 -2 -26z" />
    <glyph glyph-name="uni030C.alt" 
d="M375 2048l-139 -367h-219l79 367h279z" />
    </font>
</defs>
</svg>
